<?xml version="1.0" standalone="no"?>
<!DOCTYPE svg PUBLIC "-//W3C//DTD SVG 1.1//EN" "http://www.w3.org/Graphics/SVG/1.1/DTD/svg11.dtd" >
<svg xmlns="http://www.w3.org/2000/svg">
<metadata></metadata>
<defs>
<font id="brandon_grotesqueRgIt" horiz-adv-x="899" >
<font-face units-per-em="2048" ascent="1434" descent="-614" />
<missing-glyph horiz-adv-x="454" />
<glyph unicode="&#xfb01;" horiz-adv-x="1001" d="M37 -575l176 1271h-107q-15 0 -23 12t-5 27l6 45q1 17 13.5 28t27.5 11h104l31 215q29 199 115 309.5t231 110.5q96 0 170 -32t111 -64q9 -7 9.5 -22t-7.5 -25l-37 -51q-17 -24 -51 -3q-100 70 -193 70q-163 0 -207 -293l-30 -215h489q13 0 23 -12t8 -27l-105 -741 q-3 -15 -15.5 -27t-25.5 -12h-71q-13 0 -22 12t-7 27l92 657h-383l-176 -1271q-3 -15 -15.5 -27t-25.5 -12h-71q-14 0 -23 12t-6 27z" />
<glyph unicode="&#xfb02;" horiz-adv-x="1007" d="M37 -575l176 1271h-107q-15 0 -23 12t-5 27l6 45q1 17 13 28t26 11h106l39 264q26 185 127.5 278t241.5 93q40 0 77 -10.5t61 -26t42 -31t27 -26.5l8 -10l27 65q8 19 32 19h41q13 0 22 -12t7 -27l-190 -1356q-1 -15 -14 -27t-27 -12h-72q-13 0 -22 12t-7 27l164 1163 q-2 3 -9.5 14t-25.5 30t-39 35.5t-51 29t-61 12.5q-74 0 -137 -58t-82 -182l-37 -264h207q14 0 21.5 -11t6.5 -28l-6 -45q-3 -16 -14.5 -27.5t-26.5 -11.5h-205l-176 -1271q-3 -15 -15.5 -27t-25.5 -12h-71q-14 0 -23 12t-6 27z" />
<glyph horiz-adv-x="2048" />
<glyph horiz-adv-x="2048" />
<glyph unicode="&#xd;" horiz-adv-x="2048" />
<glyph unicode=" "  horiz-adv-x="454" />
<glyph unicode="&#x09;" horiz-adv-x="454" />
<glyph unicode="&#xa0;" horiz-adv-x="454" />
<glyph unicode="!" horiz-adv-x="606" d="M125 82q0 54 39 92.5t90 38.5q42 0 70 -29.5t28 -72.5q0 -54 -39 -92.5t-92 -38.5q-41 0 -68.5 30t-27.5 72zM258 590l41 571l33 234q2 15 14 27t25 12h110q13 0 23 -12t8 -27l-33 -230l-123 -575q-3 -12 -15 -22.5t-24 -10.5h-28q-12 0 -21.5 10.5t-9.5 22.5z" />
<glyph unicode="&#x22;" horiz-adv-x="602" d="M168 1065l47 330q1 15 13 27t26 12h78q18 0 25.5 -15t-1.5 -37l-100 -325q-4 -12 -16 -21.5t-21 -9.5h-22q-13 0 -22 12t-7 27zM453 1065l45 330q3 15 15.5 27t25.5 12h75q19 0 27.5 -15t-0.5 -37l-100 -325q-4 -12 -16 -21.5t-23 -9.5h-21q-14 0 -22.5 12t-5.5 27z" />
<glyph unicode="#" horiz-adv-x="1026" d="M70 438l2 15q1 17 13 28t26 11h143l92 350h-131q-13 0 -23 12t-8 27l2 14q3 16 14.5 27.5t26.5 11.5h144l125 467q3 13 13.5 23t22.5 10h17q15 0 22.5 -13t3.5 -32l-118 -455h280l121 467q3 12 16 22.5t25 10.5h12q17 0 26 -13t3 -32l-119 -455h127q15 0 23.5 -12 t5.5 -27l-2 -14q-2 -16 -12.5 -27.5t-24.5 -11.5h-141l-92 -350h129q14 0 22.5 -11t5.5 -28l-2 -15q-2 -15 -13 -27t-24 -12h-145l-98 -366q-3 -13 -15 -23t-26 -10h-13q-17 0 -25 13t-3 32l96 354h-283l-98 -366q-3 -13 -15 -23t-24 -10h-12q-18 0 -26 13t-3 32l94 354 h-129q-15 0 -23 12t-5 27zM338 492h283l92 350h-281z" />
<glyph unicode="$" horiz-adv-x="997" d="M43.5 190.5q2.5 11.5 15.5 24.5l41 43q21 21 34 24t32 -14q16 -19 22 -26.5t31.5 -32.5t47.5 -39t58.5 -29.5t75.5 -21.5l76 528q-13 9 -39 28q-56 39 -83.5 60t-68 59t-59.5 69.5t-34 77.5t-15 99q0 52 13.5 105.5t45.5 107t78.5 96t117.5 71t157 32.5l10 66 q1 17 13 27.5t26 10.5h14q14 0 23 -10.5t6 -27.5l-10 -66q149 -13 268 -102q7 -6 12.5 -14t4.5 -24t-15 -32l-31 -35q-36 -43 -67 -18q-93 73 -191 86l-75 -535q75 -42 125 -77.5t95 -83.5t67 -106.5t22 -129.5q0 -167 -118 -279.5t-306 -121.5l-29 -211q-3 -18 -16 -27.5 t-29 -9.5q-15 0 -26.5 10t-10.5 27l31 215q-68 7 -130 31t-103 55t-62 51t-33 35q-8 10 -11 16.5t-0.5 18zM334 1059q0 -74 42.5 -130t125.5 -106l69 492q-111 -14 -174 -94t-63 -162zM483 119q95 11 165.5 83.5t70.5 162.5q0 72 -41 128t-125 113z" />
<glyph unicode="%" horiz-adv-x="1261" d="M158 1141q0 130 84 221.5t207 91.5q89 0 151 -70t62 -170q0 -129 -86.5 -221t-204.5 -92q-86 0 -149.5 70.5t-63.5 169.5zM159 17.5q-7 17.5 5 37.5l823 1358q12 21 33 21h49q20 0 27.5 -18t-4.5 -38l-828 -1358q-10 -20 -33 -20h-45q-20 0 -27 17.5zM272 1153 q0 -58 32.5 -96.5t82.5 -38.5q61 0 108.5 53t47.5 127q0 56 -32 95.5t-79 39.5q-64 0 -112 -53.5t-48 -126.5zM614 219q0 130 84 221.5t207 91.5q89 0 151 -69.5t62 -169.5q0 -129 -86.5 -221t-204.5 -92q-86 0 -149.5 70t-63.5 169zM729 231q0 -58 32.5 -96.5t82.5 -38.5 q61 0 108 53t47 127q0 56 -31.5 96t-78.5 40q-63 0 -111.5 -54t-48.5 -127z" />
<glyph unicode="&#x26;" horiz-adv-x="1245" d="M121 303q0 87 29 161.5t86.5 134t93 88t97.5 70.5q4 3 7 5l6 4v4l-39 53q-51 74 -73.5 144t-10.5 155q9 63 34 118.5t68 105.5t113 79t160 29q123 0 201 -80t78 -192q0 -34 -7 -67t-16.5 -60t-28 -56t-33.5 -49.5t-41.5 -46t-42.5 -40.5t-46 -37t-43.5 -32t-43 -30 t-36.5 -25l237 -327q40 66 76 166.5t53 199.5q4 28 12.5 34.5t32.5 6.5h68q33 0 27 -47q-17 -117 -66.5 -247t-109.5 -220l149 -192q12 -19 17 -29.5t-1 -29.5t-32 -36l-27 -20q-48 -33 -76 8l-123 168q-7 -8 -20 -21t-56.5 -46.5t-89 -59t-115 -46.5t-138.5 -21 q-142 0 -236 95.5t-94 227.5zM266 319q0 -93 53.5 -148.5t145.5 -55.5q53 0 105.5 17.5t90 42.5t67.5 50t45 43l15 17l-270 389q-39 -27 -62.5 -44.5t-64.5 -54.5t-64.5 -71t-42 -83.5t-18.5 -101.5zM453 1118q-10 -63 8.5 -116.5t64.5 -114.5l35 -45q9 6 41 27t50 34t49 37 t49.5 46t38 50t29 59.5t9.5 65.5q0 70 -42 121t-119 51q-84 0 -141.5 -61t-71.5 -154z" />
<glyph unicode="'" horiz-adv-x="317" d="M168 1065l47 330q1 15 13 27t26 12h78q17 0 23.5 -14.5t0.5 -37.5l-100 -325q-4 -12 -16 -21.5t-21 -9.5h-22q-13 0 -22 12t-7 27z" />
<glyph unicode="(" horiz-adv-x="665" d="M121 426q0 219 35 395.5t91.5 289.5t132.5 190t153 111t159 38q31 3 31 -20l-4 -56q0 -13 -8 -23t-17 -12q-430 -95 -430 -917q0 -197 58 -320t178 -151q9 -2 13.5 -12t0.5 -23l-12 -55q-6 -24 -37 -21q-63 4 -121 37.5t-109.5 99.5t-82.5 182t-31 267z" />
<glyph unicode=")" horiz-adv-x="665" d="M-35 -139l4 55q0 13 7 23t18 12q430 96 430 917q0 196 -58.5 319.5t-177.5 151.5q-9 2 -13.5 12t-0.5 23l12 56q6 23 37 20q48 -3 95 -23t92.5 -65.5t80 -110.5t55.5 -165t21 -222q0 -219 -35 -395.5t-91.5 -289.5t-132.5 -190t-153 -111t-159 -38q-31 -3 -31 21z" />
<glyph unicode="*" horiz-adv-x="632" d="M133.5 1020.5q4.5 16.5 22.5 26.5l153 96l-131 96q-25 18 0 53l21 27q23 32 47 8l114 -100l21 170q1 15 13 26t26 11h31q14 0 22.5 -11t5.5 -26l-26 -168l139 102q29 16 47 -12l12 -23q7 -14 2.5 -29t-18.5 -24l-158 -100l131 -101q10 -9 10.5 -25t-8.5 -28l-18 -22 q-11 -14 -26.5 -18t-24.5 5l-113 101l-20 -166q-2 -15 -14 -27t-25 -12h-31q-15 0 -23.5 12t-5.5 27l27 168l-139 -99q-12 -8 -24.5 -4t-20.5 17l-15 20q-8 13 -3.5 29.5z" />
<glyph unicode="+" horiz-adv-x="937" d="M98 682l8 57q2 15 14 27t25 12h287l45 324q1 15 14 26t27 11h64q13 0 21.5 -11t6.5 -26l-45 -324h287q13 0 22 -12t7 -27l-9 -57q-2 -15 -13.5 -27t-24.5 -12h-287l-45 -321q-1 -15 -14 -26t-27 -11h-64q-14 0 -22.5 11t-7.5 26l47 321h-287q-13 0 -22 12t-7 27z" />
<glyph unicode="," horiz-adv-x="468" d="M6 -326q-15 19 12 43q15 12 33 29.5t47 52t51 83t29 100.5q-6 -2 -28 -2q-41 0 -70 30t-29 72q0 55 40 93t93 38q46 0 77.5 -32t31.5 -107q0 -68 -22.5 -136.5t-59.5 -123.5t-71 -94.5t-68 -69.5q-27 -27 -43 -4z" />
<glyph unicode="-" horiz-adv-x="800" d="M156 487l6 39q3 17 14.5 28t26.5 11h391q15 0 23.5 -11t5.5 -28l-7 -39q-3 -15 -14.5 -25.5t-26.5 -10.5h-389q-15 0 -24 10.5t-6 25.5z" />
<glyph unicode="." horiz-adv-x="452" d="M51 82q0 54 39 92.5t90 38.5q42 0 70.5 -29.5t28.5 -72.5q0 -54 -39.5 -92.5t-92.5 -38.5q-41 0 -68.5 30t-27.5 72z" />
<glyph unicode="/" horiz-adv-x="634" d="M12 51l553 1356q12 27 37 27h55q20 0 27.5 -15t-0.5 -37l-551 -1355q-12 -27 -37 -27h-57q-19 0 -26.5 14.5t-0.5 36.5z" />
<glyph unicode="0" horiz-adv-x="1214" d="M158 518q0 268 67.5 470t197 314.5t304.5 112.5q169 0 267 -145t98 -391q0 -269 -66.5 -470.5t-195.5 -314t-306 -112.5q-171 0 -268.5 145t-97.5 391zM307 522q0 -192 61 -299.5t175 -107.5q185 0 292 207.5t107 549.5q0 192 -60 301t-175 109q-122 0 -213 -96 t-139 -267.5t-48 -396.5z" />
<glyph unicode="1" horiz-adv-x="641" d="M143 1073q-9 17 15 41l297 279h63q13 0 22 -12t7 -27l-187 -1315q-2 -15 -13.5 -27t-24.5 -12h-80q-15 0 -24 12t-7 27l156 1100l-154 -115q-29 -22 -41 2z" />
<glyph unicode="2" horiz-adv-x="987" d="M16 39l9 61l526 539q231 237 231 412q0 41 -11.5 78.5t-35.5 71t-67.5 53.5t-100.5 20q-125 0 -274 -154q-25 -24 -49 0l-39 39q-9 9 -8 25t12 28q7 8 19 21.5t52 48.5t81.5 61.5t104.5 48t124 21.5q165 0 257.5 -98.5t92.5 -241.5q0 -62 -15.5 -120t-38 -104.5 t-64 -101.5t-77.5 -95t-94 -99l-409 -420h526q13 0 23 -12t8 -27l-8 -55q-1 -15 -14 -27t-27 -12h-705q-15 0 -23.5 12t-5.5 27z" />
<glyph unicode="3" horiz-adv-x="1017" d="M38 187q3 15 15 24l58 41q27 19 47 -10q9 -14 26 -32.5t48.5 -44t79 -42.5t100.5 -17q118 0 205.5 77t87.5 208q0 101 -70.5 170.5t-210.5 69.5h-102q-34 0 -29 45l6 49q3 25 13 35t32 10h102q151 0 235.5 82t84.5 205q0 98 -58.5 159.5t-140.5 61.5q-133 0 -250 -133 q-25 -25 -49 -4l-47 39q-10 10 -6.5 26t14.5 27q6 7 16.5 19.5t46 43.5t74 54.5t97.5 43t119 19.5q145 0 243.5 -93t98.5 -249q0 -117 -76 -215.5t-164 -140.5v-6q64 -32 121 -116.5t57 -182.5q0 -184 -128.5 -307t-342.5 -123q-223 0 -348 182q-8 10 -5 25z" />
<glyph unicode="4" horiz-adv-x="1105" d="M8 354l10 76l832 973q12 12 29 12h47q14 0 22.5 -11t5.5 -28l-129 -936h150q15 0 23 -11t6 -26l-7 -45q-2 -15 -14 -27t-27 -12h-147l-39 -280q-3 -15 -15.5 -27t-25.5 -12h-78q-14 0 -22.5 12t-5.5 27l39 276h-623q-15 0 -24 12t-7 27zM193 442h493l100 709z" />
<glyph unicode="5" horiz-adv-x="1019" d="M64.5 187.5q0.5 14.5 21.5 31.5l49 39q14 12 26 11t25 -23q77 -135 242 -135q93 0 171 58t120.5 146t42.5 181q0 107 -61 176t-179 69h-282q-26 0 -38 22t-9 50l77 541q2 15 13 27t26 12h561q15 0 24.5 -12t6.5 -27l-10 -60q-3 -16 -14 -27.5t-25 -11.5h-459l-53 -376 h205q176 0 273 -95t97 -260q0 -150 -63 -274t-178.5 -197t-259.5 -73q-68 0 -127.5 17.5t-99.5 45.5t-65.5 54t-41.5 53q-16 23 -15.5 37.5z" />
<glyph unicode="6" horiz-adv-x="1038" d="M104 440q0 131 30.5 251t79 211t116.5 172.5t135 138.5t142 105t131 75t108 47q28 11 39 -21l18 -55q13 -41 -41 -59q-40 -14 -108 -54.5t-153 -104t-162 -156.5t-113 -189q1 0 17 9.5t43 23t60.5 27t77 23t84.5 9.5q141 0 238.5 -105.5t97.5 -273.5q0 -108 -39 -207 t-104.5 -170.5t-154 -114t-183.5 -42.5q-91 0 -161 36t-112.5 99.5t-64 145.5t-21.5 179zM250.5 459.5q-1.5 -86.5 17.5 -165t74 -129t139 -50.5q125 0 221.5 111t96.5 261q0 115 -64.5 194t-163.5 79q-33 0 -67.5 -7.5t-63 -19t-54.5 -25.5t-46 -28.5t-35 -26t-23 -19.5 l-8 -7q-22 -81 -23.5 -167.5z" />
<glyph unicode="7" horiz-adv-x="884" d="M82 29l4 32l682 1194h-592q-13 0 -22 12t-7 27l9 60q1 15 14 27t27 12h743q13 0 23 -12t8 -27l-2 -15l-742 -1306q-11 -22 -20 -27.5t-27 -5.5h-67q-14 0 -23 8.5t-8 20.5z" />
<glyph unicode="8" horiz-adv-x="1095" d="M98 322q0 61 20 118.5t50 100t69 79.5t72.5 59.5t65.5 37.5v6q-58 33 -104 107.5t-46 166.5q0 180 128.5 298t312.5 118q152 0 245 -89t93 -234q0 -69 -23 -131.5t-60.5 -107.5t-76.5 -77t-78 -51l-2 -6q66 -33 122 -115.5t56 -187.5q0 -88 -34.5 -167.5t-96 -138.5 t-152 -93.5t-196.5 -34.5q-169 0 -267 96.5t-98 245.5zM254 326q0 -99 64.5 -161.5t160.5 -62.5q128 0 216.5 79.5t88.5 209.5q0 90 -60 161.5t-165 84.5q-137 -17 -221 -107.5t-84 -203.5zM377 995q0 -84 50.5 -139.5t152.5 -67.5q133 14 201.5 91t68.5 192q0 97 -57.5 158 t-149.5 61q-107 0 -186.5 -84t-79.5 -211z" />
<glyph unicode="9" horiz-adv-x="1036" d="M131 891q0 110 39 210t104 170.5t153.5 112t184.5 41.5q88 0 157 -36t113 -99t66.5 -145t22.5 -178q0 -131 -30.5 -251.5t-78.5 -211.5t-115.5 -172.5t-134.5 -138.5t-142.5 -105t-131.5 -75.5t-109 -47.5q-14 -6 -25 0.5t-14 20.5l-18 55q-10 42 41 59q30 11 79.5 37.5 t118 74t132 104t121 133.5t86.5 155l-16 -10q-16 -9 -43.5 -22.5t-61 -27t-76.5 -23t-84 -9.5q-137 0 -237.5 106.5t-100.5 272.5zM279 918q0 -116 63.5 -194.5t161.5 -78.5q46 0 93 13.5t82.5 33.5t63.5 39.5t44 32.5l16 14q17 63 22.5 132t-4.5 137t-35 122t-74.5 87.5 t-117.5 33.5q-124 0 -219.5 -111t-95.5 -261z" />
<glyph unicode=":" horiz-adv-x="509" d="M78 82q0 54 38 92.5t89 38.5q41 0 67.5 -29t26.5 -71q0 -54 -38 -93.5t-89 -39.5q-41 0 -67.5 30t-26.5 72zM166 709q0 55 38 93t89 38q41 0 67.5 -29.5t26.5 -71.5q0 -54 -38 -93.5t-89 -39.5q-40 0 -67 30.5t-27 72.5z" />
<glyph unicode=";" horiz-adv-x="520" d="M29 -326q-15 19 12 43q15 12 33 29.5t47 52t51 83t29 100.5q-6 -2 -29 -2q-41 0 -69.5 30t-28.5 72q0 55 40 93t93 38q46 0 77 -32t31 -107q0 -68 -22.5 -136.5t-59.5 -123.5t-71 -94.5t-68 -69.5q-27 -27 -43 -4zM168 709q0 55 38 93t89 38q41 0 67.5 -29.5t26.5 -71.5 q0 -54 -38 -93.5t-89 -39.5q-40 0 -67 30.5t-27 72.5z" />
<glyph unicode="&#x3c;" horiz-adv-x="831" d="M35 465l2 14q2 17 24 31l689 434q25 15 42.5 4.5t14.5 -37.5l-10 -80q-3 -21 -31 -38l-528 -330l438 -313q22 -13 18 -39l-12 -78q-3 -24 -25 -30t-39 7l-567 420q-19 15 -16 35z" />
<glyph unicode="=" horiz-adv-x="983" d="M139 326l11 63q2 15 13.5 27t24.5 12h560q15 0 23.5 -11.5t6.5 -27.5l-10 -63q-2 -15 -13 -27t-26 -12h-559q-15 0 -24 12t-7 27zM201 758l8 61q3 16 15 27.5t26 11.5h559q15 0 23.5 -12t5.5 -27l-9 -61q-2 -15 -14 -27t-27 -12h-559q-13 0 -21.5 12t-6.5 27z" />
<glyph unicode="&#x3e;" horiz-adv-x="829" d="M-2 41l10 80q2 24 29 39l530 317l-438 330q-22 19 -20 39l10 65q5 26 26 37t41 -4l566 -434q19 -16 16 -31l-2 -16q-2 -17 -27 -33l-686 -420q-23 -14 -41 -4.5t-14 35.5z" />
<glyph unicode="?" horiz-adv-x="888" d="M201 1212q-25 22 0 62q8 13 19.5 28t43.5 44.5t70 51.5t100.5 39t132.5 17q126 0 206.5 -75t80.5 -195q0 -42 -8 -78.5t-27 -68.5t-35 -55t-47.5 -51t-47.5 -41t-52 -40q-36 -26 -52 -38.5t-39.5 -35.5t-34.5 -45t-15 -49l-13 -84q-3 -20 -15.5 -30.5t-27.5 -10.5h-67 q-14 0 -22 11t-7 28l12 86q4 29 12 54.5t22 48t24.5 38.5t31.5 35.5t31.5 28.5t36 29t33.5 26q9 7 37.5 29t39.5 31.5t31.5 31t29.5 39t16.5 44.5t7.5 57q0 64 -45.5 108.5t-120.5 44.5q-34 0 -66 -8.5t-54 -18.5t-47 -29t-36.5 -30t-31 -32t-23.5 -25q-23 -23 -47 -2z M246 82q0 54 39.5 92.5t91.5 38.5q42 0 69 -29.5t27 -72.5q0 -53 -38.5 -92t-90.5 -39q-42 0 -70 30t-28 72z" />
<glyph unicode="@" horiz-adv-x="1837" d="M74 457q31 218 113.5 401t208 315.5t296.5 206.5t369 74q236 0 401 -113t233.5 -309t33.5 -442q-12 -85 -35 -167.5t-63.5 -163.5t-92.5 -142t-126 -99t-159 -38q-82 0 -126 46t-58 113h-2q-39 -66 -114 -112.5t-158 -46.5q-144 0 -220 119t-49 313q28 198 142 313 t260 115q34 0 66.5 -9.5t54.5 -23t38.5 -27t24.5 -22.5l8 -10l15 40q7 21 14.5 26t28.5 5h39q12 0 20.5 -12t7.5 -27l-59 -436q-17 -124 8 -185t82 -61q108 0 201.5 132t124.5 360q15 127 7 239t-50.5 206t-109.5 161.5t-169.5 105t-230.5 37.5q-330 0 -560 -237t-288 -645 q-40 -283 62.5 -489t307.5 -310q19 -11 21.5 -23t-6.5 -28l-29 -56q-19 -32 -47 -16q-239 120 -359.5 360.5t-76.5 561.5zM659 319q0 -99 43 -153.5t109 -54.5q80 0 147 74t84 143l37 252q-1 5 -4.5 13t-16.5 29t-29.5 37.5t-47 29.5t-66.5 13q-99 0 -177.5 -104t-78.5 -279 z" />
<glyph unicode="A" horiz-adv-x="1239" d="M-55 16q-3 6 -3 14q0 11 7 23l756 1379q11 22 34 22h19q21 0 28 -22l365 -1379q1 -6 1 -11q0 -14 -8 -26q-12 -16 -32 -16h-86q-26 0 -31 23l-82 337h-639l-174 -337q-14 -23 -39 -23h-88q-21 0 -28 16zM350 487h524l-161 672h-13z" />
<glyph unicode="B" horiz-adv-x="1189" d="M129 39l190 1356q3 16 15 27.5t26 11.5h408q148 0 239 -94t91 -232q0 -129 -70 -226.5t-164 -152.5q74 -37 127 -109t53 -178q0 -193 -125.5 -317.5t-334.5 -124.5h-424q-15 0 -24 12q-7 10 -7 22v5zM295 137h317q106 0 183 85.5t77 205.5q0 95 -62.5 158t-156.5 63h-286 zM389 791h285q112 0 181 86.5t69 214.5q0 92 -47 146t-134 54h-282z" />
<glyph unicode="C" horiz-adv-x="1331" d="M125 616q0 228 100.5 420t279 305t396.5 113q133 0 232.5 -47.5t187.5 -142.5q9 -8 9 -23v-6q-2 -19 -15 -29l-60 -47q-15 -12 -26.5 -9.5t-26.5 19.5q-52 59 -142 98.5t-179 39.5q-114 0 -222.5 -55t-188.5 -146t-128.5 -215.5t-48.5 -255.5q0 -135 52 -250t150 -185.5 t220 -70.5q45 0 87.5 10t73 22t70.5 37.5t61.5 41.5t63.5 49q28 23 45 6l64 -62q10 -14 6.5 -28.5t-15.5 -26.5q-207 -198 -477 -198q-151 0 -282 85t-209 232t-78 319z" />
<glyph unicode="D" horiz-adv-x="1413" d="M129 39l190 1356q1 15 13 27t26 12h416q156 0 285 -89.5t199.5 -231.5t70.5 -302q0 -164 -59.5 -313.5t-160.5 -259t-241 -174t-295 -64.5h-417q-14 0 -22 12q-6 9 -6 19q0 4 1 8zM299 141h264q162 0 297.5 85.5t216 239t80.5 341.5q0 214 -118.5 350.5t-311.5 136.5 h-266z" />
<glyph unicode="E" horiz-adv-x="1122" d="M129 39l190 1356q1 15 13 27t26 12h732q15 0 23 -12q6 -9 6 -19q0 -4 -1 -8l-8 -60q-2 -15 -14 -27t-27 -12h-606l-72 -499h518q14 0 23 -12t6 -27l-8 -60q-1 -17 -13 -28t-26 -11h-518l-74 -522h608q15 0 23.5 -12t5.5 -27l-8 -59q-2 -15 -14 -27t-27 -12h-729 q-16 0 -24 12q-6 9 -6 19q0 4 1 8z" />
<glyph unicode="F" horiz-adv-x="1081" d="M129 39l190 1356q1 15 13 27t26 12h732q15 0 23 -12q6 -9 6 -19q0 -4 -1 -8l-8 -60q-2 -15 -14 -27t-27 -12h-606l-80 -561h518q14 0 23 -12t6 -27l-8 -59q-1 -15 -14 -27t-27 -12h-516l-80 -559q-1 -15 -13 -27t-26 -12h-88q-16 0 -24 12q-6 9 -6 19q0 4 1 8z" />
<glyph unicode="G" horiz-adv-x="1384" d="M125 616q0 228 101 420t279.5 305t395.5 113q134 0 234 -48t188 -142q9 -8 9 -23v-6q-2 -19 -15 -29l-72 -59q-15 -12 -26.5 -9.5t-26.5 19.5q-55 63 -138 106.5t-169 43.5q-114 0 -222.5 -54t-188.5 -144t-128.5 -213.5t-48.5 -254.5q0 -136 51.5 -252t149 -187 t219.5 -71q52 0 104 9t89.5 21.5t67.5 25t46.5 21.5t17.5 9l41 293h-202q-15 0 -23.5 11t-5.5 26l10 69q1 17 13.5 28t27.5 11h324q12 0 20.5 -10.5t7.5 -23.5l-65 -478q-3 -23 -21 -32q-8 -5 -24 -14t-66 -31.5t-102.5 -40t-130 -31.5t-152.5 -14q-155 0 -286 85 t-207 231.5t-76 319.5z" />
<glyph unicode="H" horiz-adv-x="1447" d="M129 39l190 1356q3 15 15.5 27t25.5 12h89q15 0 23.5 -11.5t6.5 -27.5l-86 -598h725l84 598q3 16 14.5 27.5t26.5 11.5h88q14 0 23 -12q7 -9 7 -20q0 -4 -1 -7l-191 -1356q-1 -15 -13 -27t-26 -12h-88q-15 0 -23.5 11.5t-6.5 27.5l88 620h-725l-88 -620q-2 -15 -13 -27 t-26 -12h-88q-13 0 -23 12t-8 27z" />
<glyph unicode="I" horiz-adv-x="565" d="M129 39l190 1356q1 15 13 27t26 12h91q15 0 23 -12q6 -9 6 -19q0 -4 -1 -8l-190 -1356q-1 -15 -13 -27t-26 -12h-90q-14 0 -23 12q-7 9 -7 20q0 3 1 7z" />
<glyph unicode="J" horiz-adv-x="790" d="M-86 158q3 15 14 24l45 41q14 12 28 12q19 0 36 -24q24 -32 70.5 -62t103.5 -30q36 0 72.5 17.5t71 53t61 96t37.5 138.5l137 971q2 15 14 27t27 12h88q15 0 23 -12q7 -9 7 -19q0 -4 -1 -8l-136 -967q-32 -228 -134 -338t-277 -110q-55 0 -104.5 16.5t-84.5 42t-56.5 47 t-35.5 41.5q-6 11 -6 23v8z" />
<glyph unicode="K" horiz-adv-x="1171" d="M131 49l188 1335q3 21 17.5 35.5t34.5 14.5h69q19 0 30.5 -15t8.5 -35l-82 -579l643 608q6 8 18 14.5t19 6.5h107q26 0 36 -22q3 -6 2 -12q0 -16 -16 -32l-667 -627l485 -688q12 -11 2.5 -32t-37.5 -21h-98q-9 0 -19 4.5t-12 9.5l-477 686l-92 -651q-3 -20 -17.5 -34.5 t-33.5 -14.5h-70q-20 0 -30 14q-9 12 -9 28v7z" />
<glyph unicode="L" horiz-adv-x="919" d="M129 39l190 1356q3 16 15 27.5t26 11.5h89q13 0 22.5 -12t7.5 -27l-178 -1258h522q13 0 22 -12q7 -10 7 -22v-5l-8 -59q-3 -16 -14.5 -27.5t-26.5 -11.5h-643q-15 0 -24 12q-7 10 -7 22v5z" />
<glyph unicode="M" horiz-adv-x="1624" d="M35 49l428 1376q9 29 43 29h29q32 0 36 -22l199 -1125h4l518 1125q11 22 39 22h29q15 0 26 -8.5t11 -20.5l45 -1376q0 -22 -12 -35.5t-35 -13.5h-72q-18 0 -27.5 8.5t-9.5 20.5l-20 1024h-2l-482 -1051q-11 -22 -39 -22h-26q-33 0 -37 22l-188 1069h-3l-309 -1042 q-8 -29 -43 -29h-71q-22 0 -30 14q-4 8 -4 18q0 8 3 17z" />
<glyph unicode="N" horiz-adv-x="1466" d="M129 39l193 1378q2 15 15 26t30 11h51l659 -1149h2l154 1090q2 15 15.5 27t31.5 12h66q16 0 26 -12q8 -10 8 -22v-5l-194 -1379q-2 -15 -15 -25.5t-30 -10.5h-51l-662 1169h-4l-150 -1110q-2 -15 -16 -27t-31 -12h-65q-17 0 -26 12q-7 9 -7 21v6z" />
<glyph unicode="O" horiz-adv-x="1552" d="M127 715q22 152 91 288t169.5 235.5t233 157.5t274.5 58q133 0 248.5 -58.5t193.5 -157.5q77 -98 113 -236q22 -85 22 -174q0 -56 -8 -113q-21 -152 -89.5 -287.5t-169 -234t-233 -156t-276.5 -57.5q-133 0 -248 57.5t-192 155.5q-78 99 -114 235q-23 87 -22 180 q0 53 7 107zM272 715q-7 -48 -6 -94q0 -107 35 -203q51 -136 160.5 -215.5t251.5 -79.5t274 79.5t221 216t111 296.5q7 50 7 97q0 104 -35 200q-51 138 -160.5 218.5t-251.5 80.5t-273.5 -80.5t-221 -217.5t-112.5 -298z" />
<glyph unicode="P" horiz-adv-x="1134" d="M129 39l190 1356q3 16 15 27.5t26 11.5h412q150 0 252 -118.5t102 -277.5q0 -139 -64.5 -258.5t-175.5 -189.5t-241 -70h-291l-67 -481q-3 -15 -15.5 -27t-25.5 -12h-86q-15 0 -24 12q-7 10 -7 22v5zM375 668h280q121 0 217.5 106t96.5 250q0 107 -65.5 180.5 t-162.5 73.5h-280z" />
<glyph unicode="Q" horiz-adv-x="1554" d="M129 715q21 152 89.5 288t168.5 235.5t232.5 157.5t275.5 58q133 0 248.5 -58.5t193.5 -157t114 -236.5q23 -86 23 -178q0 -54 -8 -109q-32 -223 -165 -405t-322 -269l162 -385q10 -22 -2.5 -42t-42.5 -20h-86q-26 0 -39 33l-140 363q-54 -10 -135 -10q-132 0 -246.5 58 t-192 155.5t-113.5 234.5q-23 87 -23 178q0 54 8 109zM274 715q-7 -50 -7 -98q0 -105 35 -199q50 -136 159.5 -215.5t251.5 -79.5t274 79.5t221.5 216t112.5 296.5q7 48 7 94q0 107 -36 203q-51 138 -161 218.5t-252 80.5t-273.5 -80.5t-220.5 -217.5t-111 -298z" />
<glyph unicode="R" horiz-adv-x="1253" d="M129 39l190 1356q1 15 13 27t26 12h461q165 0 268 -116t103 -284q0 -151 -93.5 -280t-242.5 -176l178 -519q8 -21 -2.5 -40t-32.5 -19h-100q-9 0 -17 6t-10 12l-168 543h-344l-73 -522q-1 -15 -13 -27t-26 -12h-88q-16 0 -24 12q-6 9 -6 19q0 4 1 8zM381 696h334 q130 0 221.5 98t91.5 238q0 104 -65 178t-164 74h-334z" />
<glyph unicode="S" horiz-adv-x="1026" d="M58 190q2 12 16 25l32 35q21 21 34 24t32 -14q126 -143 295 -143q103 0 184.5 75t81.5 173q0 91 -62.5 156.5t-203.5 146.5q-68 39 -113 72.5t-84.5 77.5t-58 99t-18.5 123q0 55 13.5 109.5t46.5 110.5t82 98t127 69t175 27q186 -1 317 -104q17 -13 17 -32q0 -17 -15 -38 l-22 -33q-23 -27 -44 -27q-12 0 -24 9q-39 32 -107.5 60t-135.5 28q-66 0 -120.5 -25.5t-87 -65.5t-50 -83.5t-17.5 -83.5q0 -82 52 -143t155 -117q67 -36 112.5 -64t93.5 -67.5t76 -79t46 -92.5t18 -115q0 -175 -120 -288t-328 -113q-65 0 -126 16.5t-102 38t-77.5 49.5 t-52 43.5t-25.5 28.5q-8 10 -11 16q-2 4 -2 9q0 4 1 9z" />
<glyph unicode="T" horiz-adv-x="890" d="M123 1335l8 60q1 15 13 27t26 12h786q16 0 24 -12q6 -9 6 -19q0 -4 -1 -8l-8 -60q-2 -15 -14 -27t-27 -12h-313l-177 -1257q-3 -15 -15 -27t-25 -12h-87q-13 0 -22.5 12t-7.5 27l176 1257h-313q-16 0 -24 12q-6 9 -6 19q0 4 1 8z" />
<glyph unicode="U" horiz-adv-x="1359" d="M182 528l121 867q3 15 15.5 27t25.5 12h88q15 0 23.5 -12t5.5 -27l-119 -854q-6 -45 -6 -87q0 -122 54 -210q74 -118 226 -119q101 0 187.5 57.5t139.5 150.5t69 204l121 858q2 15 13.5 27t24.5 12h89q14 0 22 -12q6 -9 7 -19q0 -4 -1 -8l-121 -867q-16 -118 -61 -217 t-115.5 -173.5t-171 -116t-221.5 -41.5q-136 0 -239 71.5t-151 197.5q-33 87 -32 188q0 44 6 91z" />
<glyph unicode="V" horiz-adv-x="1241" d="M129 1380q-1 6 -1 12q0 14 8 26q12 16 32 16h84q11 0 19 -7.5t10 -15.5l282 -1143h8l603 1143q9 23 34 23h101q21 0 27 -17q2 -6 2 -13q0 -11 -7 -24l-756 -1378q-11 -22 -34 -22h-19q-19 0 -26 22z" />
<glyph unicode="W" horiz-adv-x="1687" d="M195 1384q-1 5 -1 9q0 16 9 27q11 14 30 14h86q11 0 20 -9t11 -20l96 -1057h7l458 1084q9 22 35 22h33q25 0 29 -22l157 -1084h6l392 1057q5 11 15.5 20t20.5 9h99q20 0 27 -14q3 -7 3 -15q0 -9 -4 -21l-542 -1376q-10 -28 -37 -28h-29q-25 0 -29 22l-165 1104h-9 l-471 -1104q-9 -22 -34 -22h-29q-12 0 -20.5 8t-10.5 20z" />
<glyph unicode="X" horiz-adv-x="1120" d="M4 16q-3 5 -3 11q0 11 9 24l475 684l-274 651q-8 20 2 34t33 14h98q21 0 29 -19l219 -555h2l369 555q13 19 34 19h113q23 0 31 -17q3 -6 3 -13q0 -12 -9 -24l-453 -645l281 -684q9 -22 -0.5 -36.5t-32.5 -14.5h-101q-22 0 -28 18l-226 590h-4l-397 -590q-11 -18 -35 -18 h-102q-25 0 -33 16z" />
<glyph unicode="Y" horiz-adv-x="1060" d="M116 1418q8 16 29 16h95q18 0 28 -19l285 -584h4l455 584q14 19 32 19h99q23 0 29 -20q1 -6 1 -11q0 -15 -10 -29l-540 -682l-93 -653q-1 -15 -14 -27t-27 -12h-86q-15 0 -23.5 11.5t-6.5 27.5l92 651l-348 694q-5 10 -5 19q0 8 4 15z" />
<glyph unicode="Z" horiz-adv-x="1009" d="M-8 39l4 37l827 1214h-567q-14 0 -24 12t-7 27l11 66q3 15 15 27t25 12h750q14 0 23 -12q7 -9 7 -20q0 -4 -1 -7l-4 -27l-834 -1225h590q15 0 24.5 -12t6.5 -27l-11 -65q-3 -16 -15 -27.5t-26 -11.5h-766q-14 0 -22 12q-6 9 -7 19q0 4 1 8z" />
<glyph unicode="[" horiz-adv-x="630" d="M-6 -575l278 1970q2 15 14 27t25 12h357q13 0 21.5 -12t6.5 -27l-6 -52q-1 -16 -14 -27t-27 -11h-252l-252 -1790h252q13 0 22 -11t7 -26l-6 -53q-1 -15 -14 -27t-27 -12h-354q-13 0 -23 12t-8 27z" />
<glyph unicode="\" horiz-adv-x="630" d="M168 1382q-3 22 8.5 37t30.5 15h65q12 0 20.5 -8t10.5 -19l170 -1356q3 -21 -9.5 -36t-31.5 -15h-67q-9 0 -18.5 8.5t-10.5 18.5z" />
<glyph unicode="]" horiz-adv-x="632" d="M-111 -575l9 53q3 15 15 26t26 11h249l252 1790h-250q-14 0 -23.5 10.5t-6.5 27.5l8 52q3 15 14.5 27t24.5 12h356q13 0 22 -12t7 -27l-277 -1970q-3 -15 -15.5 -27t-25.5 -12h-354q-14 0 -24 12t-7 27z" />
<glyph unicode="^" horiz-adv-x="966" d="M107 846.5q2 13.5 12 25.5l452 570q16 20 35 20h10q21 0 29 -20l287 -580q9 -19 -0.5 -33t-32.5 -14h-76q-21 0 -30 23l-205 426h-8l-326 -426q-18 -23 -37 -23h-82q-15 0 -22.5 9t-5.5 22.5z" />
<glyph unicode="_" horiz-adv-x="731" d="M-43 -92l4 33q1 17 13.5 28t27.5 11h563q14 0 22 -11t7 -28l-4 -33q-1 -15 -13.5 -26t-27.5 -11h-563q-15 0 -23 11t-6 26z" />
<glyph unicode="`" horiz-adv-x="557" d="M188 1331l43 70q8 12 25.5 12.5t24.5 -6.5l256 -172q8 -5 10.5 -16t-4.5 -23l-25 -41q-7 -12 -16.5 -12.5t-28.5 8.5l-270 131q-35 17 -15 49z" />
<glyph unicode="a" d="M59 342q0 226 118 362t290 136q37 0 71.5 -9.5t56.5 -23t39 -27t24 -22.5l8 -10l26 53q9 18 29 18h45q17 1 23 -7q5 -6 5 -18q0 -4 -1 -8l-88 -755q-1 -14 -12 -22.5t-25 -8.5h-45q-24 0 -27 31l-8 55l-12 -11q-13 -11 -34.5 -26.5t-49.5 -31t-67.5 -26.5t-80.5 -11 q-122 0 -203.5 105.5t-81.5 256.5zM201 342q0 -96 46.5 -164.5t131.5 -68.5q37 0 72 14t59 33.5t43 39.5t28 34l9 14l41 362q-2 4 -6 10.5t-19 24t-33.5 30.5t-50 23.5t-67.5 10.5q-48 0 -91.5 -20.5t-80.5 -62t-59.5 -114t-22.5 -166.5z" />
<glyph unicode="b" horiz-adv-x="921" d="M68 39l190 1356q2 15 14 27t25 12h74q14 0 22.5 -12t5.5 -27l-84 -609q1 0 11 5.5t28 13.5t40.5 16t54 13.5t63.5 5.5q130 0 216.5 -106t86.5 -259q0 -132 -52.5 -245.5t-146 -181.5t-206.5 -68q-39 0 -75 11t-60 27t-42.5 32t-26.5 27l-9 11l-21 -55q-11 -33 -37 -33 h-43q-14 0 -22 12q-6 9 -7 19q0 4 1 8zM240 244q2 -5 6 -14.5t19 -32.5t33 -41t49 -32.5t67 -14.5q70 0 130 50t94 129.5t34 168.5q0 105 -53.5 175t-141.5 70q-44 0 -89 -12t-68 -24l-23 -13z" />
<glyph unicode="c" horiz-adv-x="837" d="M59 348q0 134 59.5 247.5t160.5 179t219 65.5q83 0 149.5 -38.5t106.5 -109.5q4 -8 4 -17q0 -6 -2 -12q-5 -15 -19 -24l-37 -27q-32 -22 -51 9q-52 81 -153 81q-113 0 -200 -99.5t-87 -237.5q0 -107 54 -181.5t140 -74.5q65 0 114.5 38t78.5 82q10 17 25 20.5t28 -7.5 l43 -37q22 -19 2 -53q-44 -73 -124 -122.5t-181 -49.5q-134 0 -232 106t-98 262z" />
<glyph unicode="d" horiz-adv-x="923" d="M61 342q0 136 55 250t152.5 181t216.5 67q32 0 62 -5.5t50.5 -13.5t36.5 -16t24.5 -13.5t9.5 -5.5l86 609q3 15 16 27t27 12h69q13 0 23 -12t8 -27l-190 -1364q-1 -14 -12 -22.5t-25 -8.5h-45q-24 0 -27 31l-8 55l-12 -11q-13 -11 -34.5 -26.5t-49.5 -31t-67.5 -26.5 t-80.5 -11q-122 0 -203.5 105.5t-81.5 256.5zM207 356q0 -106 44 -176.5t130 -70.5q37 0 72 14t59 33.5t43 39.5t28 34l9 14l57 409q-7 5 -21 13.5t-57.5 22t-87.5 13.5q-116 0 -196 -100t-80 -246z" />
<glyph unicode="e" horiz-adv-x="825" d="M61 342q0 133 54.5 246.5t155 182.5t225.5 69q121 0 186.5 -59.5t65.5 -155.5q0 -137 -143 -205q-106 -51 -278 -51q-60 0 -128 6q-1 -15 -1 -30q0 -88 46 -156q54 -80 145 -80q88 0 184 63q34 20 52 -10l24 -35q17 -27 -14 -53q-128 -94 -275 -94q-129 0 -214 106 t-85 256zM217 481q55 -5 102 -5q107 0 181 26q106 38 106 114q0 43 -34 71t-95 28q-85 0 -161.5 -69.5t-98.5 -164.5z" />
<glyph unicode="f" horiz-adv-x="620" d="M45 -575l176 1271h-127q-15 0 -24 12t-7 27l9 45q3 17 13.5 28t25.5 11h127l41 287q24 174 113.5 261t225.5 87q67 0 116 -25.5t77 -58.5q7 -9 7 -22.5t-7 -24.5l-39 -49q-23 -29 -47 -2q-17 20 -53 37.5t-72 17.5q-67 0 -115.5 -54t-64.5 -167l-41 -287h209q16 0 26 -11 t7 -28l-9 -45q-2 -15 -14 -27t-27 -12h-209l-176 -1271q-3 -15 -15.5 -27t-25.5 -12h-71q-14 0 -23 12q-7 9 -7 20q0 3 1 7z" />
<glyph unicode="g" d="M4 -354q0 12 8 20l45 35q18 12 25 12q11 0 20 -12q89 -111 189 -111q26 0 47.5 5t49.5 23.5t49.5 49.5t42 88t32.5 135l37 201h-12q-34 -48 -89.5 -80t-130.5 -32q-110 0 -184 89.5t-74 239.5q0 121 35.5 223t94 168.5t131 103t147.5 36.5q40 0 74.5 -11t54.5 -27 t35 -32.5t21 -27.5l5 -11l27 70q7 18 29 18h49q12 0 20 -11q5 -8 5 -19q0 -4 -1 -9l-133 -903q-28 -207 -128.5 -308t-237.5 -101q-51 0 -98 15.5t-74.5 33t-54 44t-32 34t-12.5 18.5q-12 16 -12 33zM199 322q0 -100 43 -156.5t108 -56.5q80 0 147.5 76t84.5 145l36 252 q-1 5 -4.5 13.5t-16 29.5t-29 37t-47 29.5t-66.5 13.5q-99 0 -177.5 -104t-78.5 -279z" />
<glyph unicode="h" horiz-adv-x="948" d="M68 39l190 1356q2 15 14 27t25 12h74q13 0 21.5 -12t6.5 -27l-92 -664q1 0 15 11t37.5 27.5t53 32.5t69.5 27t79 11q135 0 201 -96q48 -69 49 -180q0 -43 -8 -93l-62 -432q-1 -15 -14 -27t-27 -12h-73q-13 0 -22 12t-7 27l61 432q6 37 6 68q-1 65 -25 105q-36 58 -112 58 q-37 0 -74.5 -11.5t-66 -28.5t-51 -34t-36.5 -28l-13 -12l-78 -549q-2 -15 -14 -27t-27 -12h-72q-14 0 -22 12q-7 10 -6 21v6z" />
<glyph unicode="i" horiz-adv-x="425" d="M68 39l102 741q2 16 13 27.5t28 11.5h74q13 0 21.5 -12t6.5 -27l-104 -741q-1 -15 -14 -27t-27 -12h-72q-14 0 -22 12q-6 9 -7 19q0 4 1 8zM217 1282q0 45 33 78t76 33q36 0 59 -24.5t23 -61.5q0 -44 -33 -76.5t-76 -32.5q-35 0 -58.5 24.5t-23.5 59.5z" />
<glyph unicode="j" horiz-adv-x="428" d="M-379 -524q0 14 8 22l41 53q21 29 47 3q20 -20 57 -40t68 -20q68 0 116.5 53.5t64.5 165.5l149 1067q7 39 41 39h72q14 0 23.5 -11t6.5 -28l-151 -1067q-48 -348 -328 -348q-67 0 -122 27t-83 59q-10 10 -10 25zM221 1282q0 45 32.5 78t74.5 33q36 0 59 -24.5t23 -61.5 q0 -44 -33 -76.5t-76 -32.5q-35 0 -57.5 24t-22.5 60z" />
<glyph unicode="k" horiz-adv-x="858" d="M68 39l190 1356q2 15 14 27t25 12h74q13 0 21.5 -12t6.5 -27l-123 -887l351 287q28 24 47 24h114q14 -1 20 -11q4 -7 4 -13q0 -4 -2 -9q-4 -12 -11 -18l-398 -324l342 -393q11 -11 3.5 -31t-29.5 -20h-94q-19 0 -35 16l-326 396l-53 -373q-1 -15 -13 -27t-26 -12h-74 q-14 0 -22 12q-7 10 -6 21v6z" />
<glyph unicode="l" horiz-adv-x="425" d="M68 39l190 1356q1 15 14 27t27 12h72q13 0 21 -12q7 -10 8 -21q0 -3 -1 -6l-190 -1356q-1 -15 -13 -27t-26 -12h-74q-14 0 -22 12q-7 10 -6 21v6z" />
<glyph unicode="m" horiz-adv-x="1437" d="M68 39l102 741q4 39 41 39h41q24 0 27 -24l8 -64q1 0 14 11t36 27.5t52.5 32.5t70.5 27t83 11q77 0 131 -38t82 -100q1 0 16.5 12.5t34 27t48 32.5t59.5 32t67.5 24t71.5 10q142 0 202 -101q43 -73 44 -181q0 -41 -7 -87l-61 -432q-2 -15 -14 -27t-27 -12h-72 q-15 0 -24 12t-7 27l62 432q5 37 5 68q0 163 -134 163q-123 0 -229 -114q0 -38 -11 -117l-59 -432q-1 -15 -14 -27t-27 -12h-72q-14 0 -22.5 12t-5.5 27l59 432q6 39 6 71q0 160 -141 160q-35 0 -70 -12t-60.5 -29t-45.5 -34t-32 -29l-11 -12l-76 -547q-1 -15 -14 -27 t-27 -12h-72q-14 0 -22 12q-6 9 -7 19q0 4 1 8z" />
<glyph unicode="n" horiz-adv-x="948" d="M68 39l102 741q2 16 12.5 27.5t28.5 11.5h41q24 0 27 -24l8 -64l15 11q14 11 39.5 27.5t58 32.5t75.5 27t86 11q145 0 205 -101q44 -73 44 -181q0 -41 -7 -87l-62 -432q-1 -15 -14 -27t-27 -12h-73q-14 0 -23 12t-6 27l59 432q6 38 6 70q0 64 -23 103q-34 58 -112 58 q-37 0 -75 -12t-66.5 -29t-51.5 -34t-37 -29l-13 -12l-76 -547q-2 -16 -14 -27.5t-29 -11.5h-70q-14 0 -22 12q-6 9 -7 19q0 4 1 8z" />
<glyph unicode="o" horiz-adv-x="911" d="M59 352q0 198 126 343t304 145q130 0 224 -110t94 -261q0 -130 -57 -242.5t-156 -179.5t-217 -67q-130 0 -224 110t-94 262zM199 365q0 -107 54 -181.5t138 -74.5q108 0 191.5 104t83.5 244q0 103 -54 174t-137 71q-109 0 -192.5 -99.5t-83.5 -237.5z" />
<glyph unicode="p" horiz-adv-x="923" d="M-18 -575l190 1355q4 39 41 39h45q22 0 27 -26l8 -39l10 9q10 9 28.5 21.5t44 25t64.5 21.5t82 9q126 0 210.5 -108.5t84.5 -258.5q0 -207 -120.5 -350t-301.5 -143q-32 0 -62 7t-50.5 16.5t-36 19.5t-24 17t-9.5 7l-88 -622q-2 -15 -14 -27t-27 -12h-72q-13 0 -22 12 q-8 10 -8 22v5zM233 180q7 -8 20.5 -20t55.5 -31.5t86 -19.5q116 0 197.5 100t81.5 246q0 104 -49.5 175.5t-137.5 71.5q-32 0 -64 -10.5t-54.5 -25t-40 -29t-26.5 -25.5l-9 -10z" />
<glyph unicode="q" horiz-adv-x="923" d="M61 344q0 133 52.5 246t148.5 181.5t215 68.5q37 0 71 -9t57.5 -21.5t41 -25t27.5 -21.5l10 -9l18 37q14 28 39 28h41q30 0 30 -28q0 -5 -1 -11l-190 -1355q-1 -15 -14 -27t-27 -12h-72q-15 0 -24 12t-7 27l88 626q-1 0 -11.5 -7.5t-29 -17.5t-42 -20.5t-56 -18 t-64.5 -7.5q-127 0 -214 105.5t-87 258.5zM207 354q0 -108 49.5 -176.5t142.5 -68.5q44 0 90.5 16.5t70.5 33.5l24 17l61 432l-7 10q-8 9 -22.5 23t-34 28t-47.5 23.5t-59 9.5q-116 0 -192 -104.5t-76 -243.5z" />
<glyph unicode="r" horiz-adv-x="641" d="M68 39l102 741q2 16 12.5 27.5t28.5 11.5h41q24 0 27 -28l8 -60l11 11q11 11 31.5 27.5t47 32.5t65.5 27t80 11q26 0 48.5 -2.5t46 -10t29.5 -21.5q2 -6 2 -12q0 -10 -5 -22l-35 -67q-17 -32 -47 -19q-37 16 -80 16q-32 0 -63.5 -12t-54 -29t-40.5 -34t-27.5 -29 t-10.5 -12l-76 -547q-3 -15 -16.5 -27t-28.5 -12h-68q-14 0 -22 12q-6 9 -7 19q0 4 1 8z" />
<glyph unicode="s" horiz-adv-x="688" d="M30 92v5q0 9 5 18l35 47q9 12 23 14t26 -8q8 -7 22.5 -17.5t57.5 -28.5t84 -18q57 0 91 30.5t34 80.5q0 42 -30 73t-102 74q-176 98 -176 236q0 42 13 81.5t42 77t85.5 60.5t132.5 23q122 0 200 -64q16 -13 16 -30q0 -12 -9 -27l-29 -41q-22 -31 -53 -12q-72 41 -140 41 q-58 0 -85 -28.5t-27 -64.5q0 -40 26 -65.5t84 -59.5q49 -28 79.5 -48.5t63.5 -51t48.5 -67.5t15.5 -82q0 -109 -77.5 -184.5t-217.5 -75.5q-77 0 -135.5 28.5t-93.5 63.5q-7 8 -9 20z" />
<glyph unicode="t" horiz-adv-x="651" d="M82 735l8 45q3 17 13.5 28t25.5 11h90l31 228q3 15 15.5 26.5t25.5 11.5l74 5q13 0 21.5 -12t6.5 -27l-33 -232h205q15 0 23.5 -11t7.5 -28l-6 -45q-2 -15 -14 -27t-27 -12h-205l-68 -479q-3 -24 -3 -42q0 -24 6 -36q11 -20 43 -20q42 0 133 47q23 9 30 5t13 -19l22 -52 q12 -29 -20 -51q-31 -20 -96 -44.5t-121 -24.5q-94 0 -130 62q-26 44 -26 109q0 25 4 54l70 491h-88q-15 0 -25 12q-7 9 -7 20q0 3 1 7z" />
<glyph unicode="u" horiz-adv-x="925" d="M100 350l60 430q3 15 15.5 27t25.5 12h73q13 0 23 -12t8 -27l-61 -432q-6 -38 -5 -70q0 -66 23 -107q35 -62 111 -62q26 0 52.5 7t48 18t41 24t34 26t25 24t16.5 18l6 7l78 547q2 15 14 27t27 12h69q13 0 23 -12t8 -27l-104 -741q-2 -16 -13 -27.5t-28 -11.5h-41 q-20 0 -27 35l-8 53l-8 -7q-8 -7 -19 -16t-28 -21t-38.5 -23t-46 -20.5t-55 -15t-61.5 -5.5q-148 0 -205 100q-40 70 -40 175q0 44 7 95z" />
<glyph unicode="v" horiz-adv-x="772" d="M55 782q-2 8 -2 14q0 23 33 23h68q25 0 32 -31l140 -538h2l307 547q11 22 43 22h61q22 1 29 -13q3 -5 3 -12q0 -10 -7 -22l-426 -772q-10 -20 -33 -20h-10q-25 0 -29 20z" />
<glyph unicode="w" horiz-adv-x="1142" d="M94 786v6q0 12 6 18q8 8 29 9h66q31 0 34 -28l62 -498h4l283 526q14 21 34 21h11q10 0 17 -6.5t9 -14.5l121 -526h4l203 498q9 28 41 28h57q34 0 34 -22q0 -8 -5 -19l-316 -778q-10 -20 -32 -20h-11q-10 0 -18 6t-10 14l-135 588h-2l-308 -588q-12 -20 -34 -20h-9 q-25 0 -28 20z" />
<glyph unicode="x" horiz-adv-x="802" d="M-7 16q-1 3 -1 8q0 14 12 29l293 365l-191 346q-10 20 2 37.5t35 17.5h64q21 0 29 -16l147 -289h2l231 289q13 16 33 16h80q24 1 32 -17q3 -6 3 -12q0 -12 -12 -26l-297 -346l196 -367q10 -20 1 -35.5t-31 -15.5h-70q-18 0 -27 18l-157 301h-2l-234 -303q-12 -16 -33 -16 h-78q-23 0 -27 16z" />
<glyph unicode="y" horiz-adv-x="872" d="M-43 -602q-2 3 -2 8q0 10 8 25l322 571l-230 772q-6 20 3.5 32.5t31.5 12.5h72q22 0 28 -22l183 -635h2l348 635q11 22 35 22h80q20 0 27 -13q3 -6 3 -13q0 -9 -6 -21l-758 -1362q-12 -24 -34 -24h-86q-21 0 -27 12z" />
<glyph unicode="z" horiz-adv-x="696" d="M2 39l2 20l440 627v4h-301q-13 0 -20.5 11.5t-5.5 27.5l6 51q1 17 13 28t26 11h467q22 1 29 -17q3 -6 3 -14q0 -12 -8 -24l-434 -633v-2h277q31 0 28 -39l-6 -51q-2 -15 -14 -27t-27 -12h-446q-13 0 -22 12q-7 10 -7 22v5z" />
<glyph unicode="{" horiz-adv-x="743" d="M23 379l8 63q3 27 32 31q40 8 91 53t59 107l47 330q15 112 56.5 200t94.5 141.5t119.5 88.5t127 48t122.5 13q15 0 24.5 -8.5t8.5 -26.5l-4 -39q-2 -14 -10.5 -25t-20.5 -12q-140 -23 -246.5 -123t-128.5 -257l-38 -273q-8 -58 -27 -105.5t-36.5 -73.5t-46.5 -49.5 t-41.5 -30.5t-37.5 -19v-6q12 -6 20 -11t21.5 -14.5t22.5 -20t19.5 -26t16.5 -35.5t10.5 -45t4 -57.5t-5.5 -69.5l-37 -272q-23 -157 55.5 -256.5t212.5 -122.5q26 -4 21 -35l-9 -41q-3 -15 -15 -25t-26 -10q-59 0 -117.5 16.5t-113.5 55t-94 93.5t-56 139.5t-2 185.5 l46 329q9 62 -28 107.5t-77 52.5q-25 4 -22 35z" />
<glyph unicode="|" horiz-adv-x="391" d="M-8 -578l295 2096q1 16 14 27t27 11h14q14 0 22 -10.5t5 -27.5l-293 -2096q-3 -15 -15 -25.5t-26 -10.5h-12q-14 0 -23 10.5t-8 25.5z" />
<glyph unicode="}" horiz-adv-x="745" d="M-113 -600l4 41q3 31 31 35q140 23 246.5 122.5t128.5 256.5l39 272q8 58 25.5 105t35.5 74.5t43.5 49.5t41 31t38.5 19v6q-13 7 -18.5 11t-19.5 14t-21.5 20t-19 26t-17 35.5t-10.5 44.5t-4 57.5t6 69.5l37 273q22 157 -56.5 257t-212.5 123q-22 3 -18 37l6 39 q6 35 41 35q59 0 117.5 -17t113.5 -55t94 -93.5t56 -140t2 -185.5l-45 -330q-8 -61 29 -105.5t75 -54.5q26 -7 23 -31l-8 -63q-5 -31 -33 -35q-42 -7 -92 -52.5t-58 -107.5l-47 -329q-15 -112 -56.5 -200t-94.5 -141t-119.5 -88t-127 -48t-122.5 -13q-14 0 -24 10t-9 25z " />
<glyph unicode="~" horiz-adv-x="1054" d="M109 502q-15 18 4 49q11 17 20 30.5t37.5 45.5t56.5 54t70.5 40t85.5 18q39 0 78 -16.5t60.5 -33.5t51.5 -44l14 -11q14 -12 19.5 -16t19.5 -13.5t24 -14t23 -8.5t25 -4q23 0 45 9t43.5 29t32 31.5t30.5 38t21 27.5q12 15 26.5 17.5t25.5 -9.5l41 -35q17 -20 -5 -49 q-1 -1 -12.5 -17.5t-23 -30.5t-30.5 -35.5t-40.5 -38t-47 -32.5t-56 -25t-62.5 -9q-38 0 -77 17t-58.5 31.5t-50.5 41.5q-5 4 -20 17t-24 20t-23.5 16t-29 13.5t-30.5 4.5t-32.5 -4.5t-32 -16t-26.5 -19.5t-26 -26t-20.5 -24.5t-19.5 -25.5l-13 -19q-12 -15 -26 -17.5 t-25 9.5q-7 6 -21.5 17.5t-21.5 17.5z" />
<glyph unicode="&#xa1;" horiz-adv-x="462" d="M-23 -575l33 229l123 575q3 12 15 22.5t24 10.5h29q12 0 21 -10.5t9 -22.5l-41 -571l-32 -233q-2 -15 -14 -27t-25 -12h-111q-13 0 -23 12t-8 27zM137 709q0 54 39 92.5t92 38.5q41 0 69 -30.5t28 -72.5q0 -54 -39 -92.5t-90 -38.5q-42 0 -70.5 30t-28.5 73z" />
<glyph unicode="&#xa2;" horiz-adv-x="802" d="M31 348q0 204 132.5 348t313.5 144q17 0 49 -4l33 84q6 15 20 22.5t27 3.5l15 -4q14 -3 18.5 -16.5t-2.5 -30.5l-33 -84q73 -37 121 -119q7 -14 2.5 -29t-18.5 -24l-35 -25q-32 -22 -51 9q-24 40 -66 65l-219 -569q24 -4 37 -4q112 0 190 116q10 17 25 20.5t28 -7.5 l46 -39q22 -19 2 -53q-43 -72 -126 -122t-184 -50q-27 0 -67 8l-76 -199q-4 -15 -18.5 -22.5t-28.5 -4.5l-12 5q-12 3 -17.5 16.5t-1.5 28.5l78 206q-81 46 -131.5 133.5t-50.5 196.5zM180 365q0 -67 23 -122.5t63 -88.5l213 559h-12q-112 0 -199.5 -104.5t-87.5 -243.5z " />
<glyph unicode="&#xa3;" horiz-adv-x="960" d="M94 39l6 37q153 248 146 526h-82q-13 0 -21 12t-6 27l2 14q2 16 12.5 27.5t26.5 11.5h58q-1 11 -6 52.5t-9 92t-4 93.5q0 247 121.5 384.5t325.5 137.5q56 0 105.5 -15t89 -43.5t56.5 -44t43 -42.5q10 -11 9 -26.5t-13 -27.5l-49 -49q-31 -31 -53 -2q-7 9 -20 22.5 t-40.5 37t-67 39.5t-79.5 16q-117 0 -200 -102t-83 -277q0 -48 5 -102t11.5 -95.5t6.5 -48.5h289q14 0 22 -11.5t6 -27.5l-2 -16q-2 -15 -12.5 -26t-25.5 -11h-269q2 -92 -26 -233.5t-78 -237.5h444q13 0 21 -11t6 -28l-6 -53q-2 -15 -14 -27t-25 -12h-590q-13 0 -23 12 t-8 27z" />
<glyph unicode="&#xa4;" horiz-adv-x="913" d="M133 426q3 18 14 29l91 84q-23 66 -13 141t51 141l-65 84q-8 10 -6 28.5t14 27.5l49 38q12 9 26.5 9.5t22.5 -9.5l66 -84q62 40 128.5 41t119.5 -38l90 86q11 10 24 8.5t23 -11.5l37 -40q9 -11 7 -27t-13 -27l-90 -84q25 -64 14.5 -142t-53.5 -144l65 -84q8 -10 6 -27.5 t-14 -26.5l-49 -41q-11 -11 -25 -11.5t-22 9.5l-68 86q-63 -38 -129.5 -38t-118.5 40l-88 -84q-11 -10 -25.5 -9.5t-23.5 9.5l-39 39q-9 9 -6 27zM342 680q-9 -62 21.5 -105t85.5 -43t98.5 43t52.5 105q8 62 -22.5 104.5t-85.5 42.5t-98.5 -42.5t-51.5 -104.5z" />
<glyph unicode="&#xa5;" horiz-adv-x="1161" d="M171.5 1418.5q8.5 15.5 29.5 15.5h94q19 0 29 -19l284 -584h4l455 584q14 19 33 19h98q23 0 29 -20t-8 -40l-541 -682l-14 -102h231q15 0 24 -12t7 -27l-4 -16q-2 -15 -13 -26t-26 -11h-234l-20 -154h231q15 0 24 -12t7 -27l-2 -16q-3 -15 -14.5 -26t-26.5 -11h-234 l-28 -213q-1 -15 -14 -27t-27 -12h-86q-15 0 -24 12t-7 27l29 213h-234q-13 0 -21.5 12t-6.5 27l2 14q3 15 14.5 27t24.5 12h235l21 154h-234q-13 0 -22 12t-7 27l2 14q3 15 14.5 27t24.5 12h236l14 100l-348 694q-9 19 -0.5 34.5z" />
<glyph unicode="&#xa6;" horiz-adv-x="743" d="M174 -578l96 678q1 17 13 28t26 11h17q14 0 21.5 -11t4.5 -28l-94 -678q-3 -15 -15 -25.5t-26 -10.5h-12q-14 0 -23 10.5t-8 25.5zM373 842l96 676q1 16 14 27t27 11h14q14 0 22 -10.5t5 -27.5l-94 -676q-1 -15 -14 -26t-27 -11h-13q-14 0 -22.5 11t-7.5 26z" />
<glyph unicode="&#xa7;" horiz-adv-x="997" d="M-36.5 -307.5q1.5 15.5 16.5 31.5l40 45q35 35 58 6q10 -12 29.5 -30t58.5 -48.5t93 -51t108 -20.5q99 0 179 61t83 171q1 83 -63 154t-199 145q-273 149 -273 354q0 55 18.5 106.5t44.5 86t53.5 61t46 39t22.5 12.5q-3 0 -13.5 10t-26.5 32t-31 50.5t-25.5 70.5 t-10.5 87q0 51 13 102t45.5 103.5t79.5 92.5t121.5 65.5t166.5 25.5q54 0 107.5 -11t88 -23.5t68.5 -31t43 -25t19 -13.5q6 -4 10.5 -12t3.5 -23.5t-12 -32.5l-35 -43q-27 -37 -64 -12q-135 90 -233 90q-67 0 -120.5 -22.5t-84.5 -57.5t-47 -74t-16 -76q0 -143 204 -243 q87 -45 143 -80.5t107.5 -81t76 -98.5t24.5 -115q0 -56 -19.5 -109.5t-47.5 -90.5t-57.5 -65.5t-49 -42.5t-23.5 -14q3 0 14.5 -11t28 -35t32.5 -55t27 -77.5t11 -95.5q0 -172 -126 -278.5t-319 -106.5q-219 0 -372 166q-10 11 -14 17t-2.5 21.5zM246 530q0 -35 12 -65.5 t29.5 -52t52 -47.5t63 -43.5t80.5 -49t88 -55.5q6 3 15.5 8.5t34.5 25.5t44 44t34.5 63t15.5 82q0 40 -17 74.5t-55 67t-83.5 60.5t-117.5 65q-37 19 -65 38q-2 0 -14.5 -7t-32.5 -24t-38.5 -40.5t-32 -61.5t-13.5 -82z" />
<glyph unicode="&#xa8;" horiz-adv-x="763" d="M195 1282q0 45 32.5 78t75.5 33q35 0 57.5 -24.5t22.5 -61.5q0 -44 -33 -76.5t-76 -32.5q-34 0 -56.5 24.5t-22.5 59.5zM553 1282q0 45 32 78t74 33q36 0 59 -24.5t23 -61.5q0 -44 -32.5 -76.5t-75.5 -32.5q-35 0 -57.5 24t-22.5 60z" />
<glyph unicode="&#xa9;" horiz-adv-x="1538" d="M119 621q0 167 62.5 321.5t166.5 266.5t246 178.5t295 66.5q156 0 287.5 -86.5t207.5 -234t76 -320.5q0 -168 -62 -322.5t-166 -266t-246 -178t-296 -66.5q-116 0 -222 51t-182 137t-121.5 204.5t-45.5 248.5zM236 635q0 -145 59 -266.5t166.5 -194t240.5 -72.5 q123 0 240.5 56t205 149t140.5 222.5t53 269.5q0 146 -59 267t-166.5 192t-241.5 71q-122 0 -238.5 -55t-204.5 -147.5t-141.5 -222t-53.5 -269.5zM457 680q0 110 53 206.5t146 154t202 57.5q125 0 203 -78q11 -12 9 -29t-15 -30l-37 -37q-23 -23 -49 -2q-56 47 -125 47 q-101 0 -175.5 -86t-74.5 -203q0 -91 50 -151t130 -60q67 0 131 45q35 21 53 -2l31 -39q9 -11 5.5 -28t-15.5 -29q-94 -86 -225 -86q-121 0 -209 101t-88 249z" />
<glyph unicode="&#xaa;" horiz-adv-x="589" d="M133 1026q11 86 77 141.5t165 55.5q25 0 49.5 -5.5t36.5 -10.5l12 -5q15 83 7.5 120.5t-58.5 37.5q-22 0 -43 -2.5t-40.5 -8t-31.5 -9t-29 -10t-20 -7.5q-9 -3 -16 4.5t-9 18.5l-4 36q-2 19 17 31q9 6 29.5 14t68 17.5t98.5 9.5q78 0 112.5 -38t29.5 -95t-13 -123 q-1 -9 -2 -14l-43 -312q-2 -12 -10 -20t-18 -8h-43q-16 0 -19 20l-6 33q-26 -23 -40 -33.5t-47.5 -23.5t-72.5 -13q-65 0 -107.5 56t-29.5 143zM227 1024q-6 -43 12 -71.5t56 -28.5q77 0 145 77l17 115q-43 27 -99 27q-45 0 -85 -33.5t-46 -85.5z" />
<glyph unicode="&#xab;" horiz-adv-x="800" d="M61 397q-11 22 7 49l233 304q19 24 41 24h45q23 0 28 -19t-9 -44l-177 -295l80 -291q6 -26 -3.5 -44t-33.5 -18h-36q-18 0 -27 17zM373 397q-11 23 6 49l233 304q19 24 41 24h45q23 0 28 -19t-9 -44l-176 -295l80 -291q6 -26 -3.5 -44t-33.5 -18h-37q-19 0 -27 17z" />
<glyph unicode="&#xac;" horiz-adv-x="976" d="M84 682l8 57q1 15 14 27t27 12h703q14 0 23 -12.5t7 -26.5l-59 -417q-1 -15 -14 -26t-27 -11h-68q-14 0 -22.5 11t-5.5 26l45 321h-602q-13 0 -22 12t-7 27z" />
<glyph unicode="&#xad;" horiz-adv-x="641" d="M158 487l6 39q3 17 14.5 28t26.5 11h391q15 0 23.5 -11t5.5 -28l-7 -39q-3 -15 -14 -25.5t-26 -10.5h-390q-15 0 -24 10.5t-6 25.5z" />
<glyph unicode="&#xae;" horiz-adv-x="1538" d="M119 621q0 167 62.5 321.5t166.5 266.5t246 178.5t295 66.5q156 0 287.5 -86.5t207.5 -234t76 -320.5q0 -168 -62 -322.5t-166 -266t-246 -178t-296 -66.5q-116 0 -222 51t-182 137t-121.5 204.5t-45.5 248.5zM236 635q0 -145 59 -266.5t166.5 -194t240.5 -72.5 q123 0 240.5 56t205 149t140.5 222.5t53 269.5q0 146 -59 267t-166.5 192t-241.5 71q-122 0 -238.5 -55t-204.5 -147.5t-141.5 -222t-53.5 -269.5zM512 383l94 672q2 15 14 27t27 12h264q84 0 140.5 -54t56.5 -157q0 -57 -18.5 -102.5t-48 -72.5t-58 -42t-57.5 -21 q12 -40 37 -123t38 -123q7 -21 -2 -38t-36 -17h-56q-27 0 -37 29l-65 256h-135l-35 -246q-2 -15 -13 -27t-26 -12h-55q-15 0 -23.5 12t-5.5 27zM684 748h176q53 0 88 39.5t35 95.5q0 44 -24 71t-66 27h-176z" />
<glyph unicode="&#xaf;" horiz-adv-x="763" d="M80 1231l6 43q3 17 14.5 28t26.5 11h473q14 0 23 -11t6 -28l-6 -43q-1 -15 -13.5 -26t-27.5 -11h-471q-15 0 -24 11t-7 26z" />
<glyph unicode="&#xb0;" horiz-adv-x="632" d="M147 1141q0 130 84 221.5t207 91.5q89 0 151 -70t62 -170q0 -129 -86.5 -221t-204.5 -92q-86 0 -149.5 70.5t-63.5 169.5zM262 1153q0 -58 32.5 -96.5t82.5 -38.5q61 0 108 53t47 127q0 56 -31.5 95.5t-78.5 39.5q-64 0 -112 -53.5t-48 -126.5z" />
<glyph unicode="&#xb1;" horiz-adv-x="1136" d="M139 164l8 57q1 15 13 27t26 12h707q13 0 22 -12t7 -27l-9 -57q-3 -15 -14.5 -27t-24.5 -12h-706q-14 0 -23 12t-6 27zM215 825l8 58q1 15 13 27t26 12h287l43 303q3 15 15 26t26 11h61q14 0 23 -11t8 -26l-43 -303h287q13 0 21.5 -12t6.5 -27l-8 -58q-3 -15 -14.5 -27 t-24.5 -12h-286l-35 -239q-1 -15 -13 -26t-26 -11h-62q-14 0 -22.5 11t-7.5 26l32 239h-286q-14 0 -23 12t-6 27z" />
<glyph unicode="&#xb2;" horiz-adv-x="579" d="M166 1051l4 32l264 269q30 33 42.5 48t24 37t11.5 42q0 33 -22 58.5t-66 25.5q-51 0 -117 -62q-13 -11 -24 0l-29 37q-11 16 2 29q92 92 188 92q81 0 130 -45.5t49 -112.5q0 -56 -28.5 -102.5t-88.5 -106.5l-164 -170h211q15 0 12 -20l-6 -51q-5 -19 -18 -19h-359 q-19 0 -16 19z" />
<glyph unicode="&#xb3;" horiz-adv-x="561" d="M159 1107q2 7 9 11l37 41q16 9 24 -2q7 -7 19 -16.5t41 -23t55 -13.5q48 0 84.5 29.5t36.5 74.5q0 37 -29 61.5t-86 24.5h-57q-8 0 -13 5t-4 14l7 51q3 18 22 18h57q60 0 93.5 29.5t33.5 73.5q0 35 -23.5 57.5t-59.5 22.5q-25 0 -55.5 -18.5t-49.5 -37.5q-14 -11 -25 0 l-32 43q-5 4 -4 12.5t8 12.5q3 3 9 8.5t25.5 20t39.5 25t49.5 19.5t58.5 9q75 0 123.5 -41t48.5 -109q0 -56 -37.5 -100.5t-81.5 -62.5v-5q33 -14 62.5 -51.5t29.5 -85.5q0 -80 -68 -136t-169 -56q-122 0 -176 84q-5 4 -3 11z" />
<glyph unicode="&#xb4;" horiz-adv-x="557" d="M172 1194q-9 25 16 39l304 172q8 8 26 5.5t25 -21.5l26 -68q12 -31 -16 -43l-322 -137q-35 -15 -45 16z" />
<glyph unicode="&#xb5;" horiz-adv-x="956" d="M-16 -575l184 1355q3 15 15.5 27t25.5 12h74q13 0 22.5 -12t7.5 -27l-61 -432q-17 -114 17.5 -172.5t111.5 -58.5q26 0 52.5 6.5t48 16.5t41 22.5t34 25t25 22.5t16.5 16l6 7l78 547q2 15 14 27t27 12h70q13 0 22.5 -12t7.5 -27l-104 -741q-2 -16 -13 -27.5t-28 -11.5 h-41q-20 0 -27 35l-8 53l-8 -7q-8 -7 -19 -16t-28 -21t-38.5 -23t-46 -20.5t-55 -15t-61.5 -5.5q-86 0 -141 34l-80 -589q-1 -15 -14 -27t-27 -12h-72q-13 0 -21.5 12t-6.5 27z" />
<glyph unicode="&#xb6;" horiz-adv-x="1302" d="M109 950q0 127 59 240t156 179.5t206 66.5l820 -2q13 0 21.5 -12t6.5 -27l-6 -41q-3 -17 -15 -28t-26 -11h-192l-267 -1890q-2 -15 -14 -27t-27 -12h-49q-14 0 -22.5 12t-5.5 27l264 1890h-281l-266 -1890q-1 -15 -14 -27t-27 -12h-47q-13 0 -22 12t-7 27l162 1153h-80 q-140 0 -233.5 107t-93.5 265z" />
<glyph unicode="&#xb7;" horiz-adv-x="464" d="M125 520q0 54 40.5 92.5t92.5 38.5q43 0 71.5 -29.5t28.5 -72.5q0 -53 -40 -92t-93 -39q-42 0 -71 30t-29 72z" />
<glyph unicode="&#xb8;" horiz-adv-x="456" d="M53 -459q-18 27 6 51l25 23q9 9 21.5 9t19.5 -9q30 -37 74 -37q40 0 67 33t27 80q0 28 -11.5 49t-33.5 33t-41 18t-47 12q-34 7 -27 41l23 156h102l-14 -111q75 -14 119.5 -64.5t44.5 -131.5q0 -92 -59 -158.5t-156 -66.5q-44 0 -82.5 20.5t-57.5 52.5z" />
<glyph unicode="&#xb9;" horiz-adv-x="378" d="M195 1507q0 15 10 23l145 108h60q7 0 11.5 -5t2.5 -13l-82 -569q-4 -19 -18 -19h-72q-9 0 -13.5 5.5t-2.5 13.5l59 430l-80 -23q-16 -3 -16 8z" />
<glyph unicode="&#xba;" horiz-adv-x="620" d="M152 1057q0 183 72.5 289t205.5 106q89 0 141 -67t52 -183q0 -183 -73 -289t-206 -106q-89 0 -140.5 67t-51.5 183zM262 1063q0 -74 24.5 -116t69.5 -42q72 0 114 79t42 210q0 75 -24.5 117.5t-69.5 42.5q-71 0 -113.5 -80.5t-42.5 -210.5z" />
<glyph unicode="&#xbb;" horiz-adv-x="800" d="M31.5 82.5q-4.5 19.5 9.5 44.5l176 295l-80 291q-6 26 3.5 43.5t33.5 17.5h37q19 0 27 -16l147 -318q11 -23 -6 -49l-234 -303q-20 -25 -41 -25h-45q-23 0 -27.5 19.5zM345 82.5q-5 19.5 9 44.5l176 295l-79 291q-6 26 3 43.5t33 17.5h37q19 0 27 -16l147 -318 q11 -23 -6 -49l-233 -303q-20 -25 -41 -25h-45q-23 0 -28 19.5z" />
<glyph unicode="&#xbc;" horiz-adv-x="1224" d="M95.5 17.5q-7.5 17.5 4.5 37.5l824 1358q12 21 32 21h50q20 0 27 -18t-5 -38l-827 -1358q-10 -20 -33 -20h-45q-20 0 -27.5 17.5zM184 1303q0 13 11 22l145 109h59q7 0 12 -5.5t3 -13.5l-82 -569q-4 -19 -19 -19h-71q-9 0 -14 5.5t-3 13.5l60 430l-80 -23q-17 -3 -17 9z M573 139l9 60l370 401q6 6 15 6h45q6 0 11.5 -5.5t4.5 -12.5l-53 -379h74q14 0 14 -16l-6 -54q-3 -16 -21 -16h-73l-15 -105q-4 -18 -22 -18h-66q-6 0 -11.5 5.5t-4.5 12.5l14 103h-272q-6 0 -10 5.5t-3 12.5zM709 211h165l33 227z" />
<glyph unicode="&#xbd;" horiz-adv-x="1198" d="M95.5 17.5q-7.5 17.5 4.5 37.5l824 1358q12 21 32 21h50q20 0 27 -18t-5 -38l-827 -1358q-10 -20 -33 -20h-45q-20 0 -27.5 17.5zM184 1303q0 13 11 22l145 109h59q7 0 12 -5.5t3 -13.5l-82 -569q-4 -19 -19 -19h-71q-9 0 -14 5.5t-3 13.5l60 430l-80 -23q-17 -3 -17 9z M594 18l4 33l264 268q30 33 42.5 48t24 37t11.5 42q0 33 -22 58.5t-66 25.5q-52 0 -117 -61q-13 -11 -24 0l-29 37q-11 16 2 29q92 92 188 92q81 0 130 -45.5t49 -112.5q0 -56 -28.5 -102.5t-88.5 -106.5l-164 -170h211q15 0 12 -20l-6 -52q-5 -18 -18 -18h-359 q-19 0 -16 18z" />
<glyph unicode="&#xbe;" horiz-adv-x="1359" d="M127 891q-11 11 6 22l37 41q16 10 25 -2q7 -7 18.5 -16.5t40.5 -23t55 -13.5q48 0 84.5 29.5t36.5 75.5q0 37 -29 61.5t-86 24.5h-57q-19 0 -16 18l6 51q3 19 22 19h58q60 0 93.5 29t33.5 73q0 35 -24 57.5t-60 22.5q-25 0 -55.5 -18t-49.5 -37q-14 -10 -24 0l-33 43 q-5 4 -4 12t8 12q3 3 9 8.5t25.5 20t39.5 25t49.5 19.5t58.5 9q75 0 123.5 -40.5t48.5 -108.5q0 -56 -37.5 -101t-80.5 -63v-4q33 -14 62.5 -52t29.5 -86q0 -80 -68.5 -136t-169.5 -56q-122 0 -176 84zM228.5 17.5q-7.5 17.5 4.5 37.5l824 1358q12 21 33 21h49q20 0 27 -18 t-5 -38l-827 -1358q-10 -20 -33 -20h-45q-20 0 -27.5 17.5zM707 139l8 60l370 401q6 6 15 6h45q7 0 12 -5.5t4 -12.5l-53 -379h74q14 0 14 -16l-6 -54q-3 -16 -21 -16h-73l-15 -105q-4 -18 -22 -18h-66q-7 0 -12 5.5t-4 12.5l14 103h-272q-6 0 -9.5 5.5t-2.5 12.5zM842 211 h166l32 227z" />
<glyph unicode="&#xbf;" horiz-adv-x="495" d="M-223 -365q0 42 8 78.5t27 68.5t35 55t47.5 51t47.5 41t52 40q36 26 52 38.5t39.5 35.5t34.5 45t15 49l12 84q3 20 15.5 30.5t27.5 10.5h68q14 0 22 -11t7 -28l-13 -86q-4 -29 -12 -54.5t-22 -48.5t-24 -38t-31.5 -35t-31.5 -28.5t-36 -29t-33 -26.5q-10 -8 -37.5 -29 t-39 -31t-32 -31t-29.5 -38.5t-16.5 -44.5t-7.5 -57q0 -64 45.5 -109t120.5 -45q34 0 66 8.5t54 18.5t47 29t36.5 30t31 32t23.5 25q24 24 47 3l37 -31q25 -22 0 -62q-8 -13 -19.5 -28t-44 -44.5t-70.5 -51.5t-100.5 -39t-132.5 -17q-125 0 -205.5 74.5t-80.5 195.5z M158 709q0 53 39 92t90 39q42 0 70 -30.5t28 -72.5q0 -54 -39.5 -92.5t-91.5 -38.5q-42 0 -69 30t-27 73z" />
<glyph unicode="&#xc0;" horiz-adv-x="1239" d="M-55 16.5q-7 16.5 4 36.5l756 1379q11 22 34 22h19q21 0 28 -22l365 -1379q5 -20 -7 -36.5t-32 -16.5h-86q-26 0 -31 23l-82 337h-639l-174 -337q-14 -23 -39 -23h-88q-21 0 -28 16.5zM350 487h524l-161 672h-13zM610 1784l43 69q8 12 25 13t24 -6l256 -172q8 -5 11 -16 t-4 -23l-25 -41q-7 -12 -16.5 -12.5t-28.5 8.5l-270 131q-35 17 -15 49z" />
<glyph unicode="&#xc1;" horiz-adv-x="1239" d="M-55 16.5q-7 16.5 4 36.5l756 1379q11 22 34 22h19q21 0 28 -22l365 -1379q5 -20 -7 -36.5t-32 -16.5h-86q-26 0 -31 23l-82 337h-639l-174 -337q-14 -23 -39 -23h-88q-21 0 -28 16.5zM350 487h524l-161 672h-13zM586 1649q-9 25 16 39l303 172q8 8 26 5t25 -22l27 -67 q12 -31 -16 -43l-322 -138q-34 -15 -45 17z" />
<glyph unicode="&#xc2;" horiz-adv-x="1239" d="M-55 16.5q-7 16.5 4 36.5l756 1379q11 22 34 22h19q21 0 28 -22l365 -1379q5 -20 -7 -36.5t-32 -16.5h-86q-26 0 -31 23l-82 337h-639l-174 -337q-14 -23 -39 -23h-88q-21 0 -28 16.5zM350 487h524l-161 672h-13zM512 1622q-15 32 10 49l244 193q18 14 37 14h6 q19 0 39 -25l172 -186q16 -19 -4 -39l-29 -31q-13 -13 -20 -15.5t-23 7.5l-160 135l-209 -145q-14 -10 -26.5 -8t-18.5 14z" />
<glyph unicode="&#xc3;" horiz-adv-x="1239" d="M-55 16.5q-7 16.5 4 36.5l756 1379q11 22 34 22h19q21 0 28 -22l365 -1379q5 -20 -7 -36.5t-32 -16.5h-86q-26 0 -31 23l-82 337h-639l-174 -337q-14 -23 -39 -23h-88q-21 0 -28 16.5zM350 487h524l-161 672h-13zM508 1692q8 20 21 43.5t37.5 55.5t61.5 52.5t79 20.5 q29 0 53.5 -15t40 -37t29 -44t28.5 -37t31 -15q53 0 86 96q17 43 51 23l29 -16q12 -7 15.5 -21t-1.5 -26q-7 -23 -21.5 -50t-38.5 -56.5t-60 -49t-77 -19.5q-31 0 -60 23.5t-46.5 51.5t-37.5 51.5t-36 23.5t-30 -8t-22.5 -17t-18.5 -27t-13 -25.5t-10 -24.5 q-6 -14 -20.5 -19.5t-28.5 2.5l-33 17q-22 15 -8 47z" />
<glyph unicode="&#xc4;" horiz-adv-x="1239" d="M-55 16.5q-7 16.5 4 36.5l756 1379q11 22 34 22h19q21 0 28 -22l365 -1379q5 -20 -7 -36.5t-32 -16.5h-86q-26 0 -31 23l-82 337h-639l-174 -337q-14 -23 -39 -23h-88q-21 0 -28 16.5zM350 487h524l-161 672h-13zM489 1706q0 45 32.5 78t74.5 33q35 0 58.5 -24.5 t23.5 -61.5q0 -44 -33.5 -76.5t-75.5 -32.5q-35 0 -57.5 24t-22.5 60zM889 1706q0 45 32 78t74 33q35 0 58.5 -24.5t23.5 -61.5q0 -44 -33 -76.5t-75 -32.5q-35 0 -57.5 24t-22.5 60z" />
<glyph unicode="&#xc5;" horiz-adv-x="1239" d="M-55 16.5q-7 16.5 4 36.5l756 1379q11 22 34 22h19q21 0 28 -22l365 -1379q5 -20 -7 -36.5t-32 -16.5h-86q-26 0 -31 23l-82 337h-639l-174 -337q-14 -23 -39 -23h-88q-21 0 -28 16.5zM350 487h524l-161 672h-13zM588 1745q0 105 69 179.5t166 74.5q74 0 124 -56.5 t50 -136.5q0 -105 -69.5 -179.5t-165.5 -74.5q-75 0 -124.5 56t-49.5 137zM686 1761q0 -45 23.5 -77.5t64.5 -32.5q47 0 84 43t37 98q0 44 -22.5 74t-63.5 30q-47 0 -85 -40.5t-38 -94.5z" />
<glyph unicode="&#xc6;" horiz-adv-x="1683" d="M-81 16.5q-5 16.5 9 36.5l926 1317q18 26 27 36.5t25 19t38 8.5h707q13 0 21.5 -12t6.5 -27l-8 -60q-2 -15 -14 -27t-27 -12h-616l-72 -499h528q13 0 22 -12t7 -27l-8 -60q-3 -17 -15 -28t-26 -11h-526l-74 -522h618q13 0 22 -12t7 -27l-8 -59q-2 -15 -14 -27t-27 -12 h-729q-15 0 -24 12t-7 27l45 321h-420l-231 -337q-18 -23 -39 -23h-98q-21 0 -26 16.5zM406 487h346l94 654z" />
<glyph unicode="&#xc7;" horiz-adv-x="1335" d="M127 616q0 228 100.5 420t279 305t396.5 113q133 0 232.5 -47.5t187.5 -142.5q11 -10 9 -29t-15 -29l-60 -47q-15 -12 -26.5 -9.5t-26.5 19.5q-52 59 -142 98.5t-179 39.5q-114 0 -222.5 -55t-188.5 -146t-128.5 -215.5t-48.5 -255.5q0 -135 52 -250t150 -185.5 t220 -70.5q45 0 87.5 10t73 22t70.5 37.5t61.5 41.5t63.5 49q28 23 45 6l64 -62q11 -13 7.5 -28t-15.5 -27q-203 -195 -474 -198l-10 -91q75 -14 119.5 -64.5t44.5 -131.5q0 -92 -59 -158.5t-156 -66.5q-44 0 -82 20.5t-57 52.5q-18 27 6 51l24 23q9 9 21.5 9t19.5 -9 q30 -37 74 -37q40 0 67 33t27 80q0 28 -11.5 49t-33.5 33t-41 18t-47 12q-33 7 -26 41l20 146q-201 39 -337 216t-136 410z" />
<glyph unicode="&#xc8;" horiz-adv-x="1122" d="M129 39l190 1356q1 15 13 27t26 12h732q15 0 23 -12t5 -27l-8 -60q-2 -15 -14 -27t-27 -12h-606l-72 -499h518q14 0 23 -12t6 -27l-8 -60q-1 -17 -13 -28t-26 -11h-518l-74 -522h608q15 0 23.5 -12t5.5 -27l-8 -59q-2 -15 -14 -27t-27 -12h-729q-15 0 -23.5 12t-5.5 27z M588 1784l43 69q8 12 25 13t24 -6l256 -172q8 -5 10.5 -16t-4.5 -23l-24 -41q-7 -12 -17 -12.5t-29 8.5l-270 131q-34 16 -14 49z" />
<glyph unicode="&#xc9;" horiz-adv-x="1122" d="M129 39l190 1356q1 15 13 27t26 12h732q15 0 23 -12t5 -27l-8 -60q-2 -15 -14 -27t-27 -12h-606l-72 -499h518q14 0 23 -12t6 -27l-8 -60q-1 -17 -13 -28t-26 -11h-518l-74 -522h608q15 0 23.5 -12t5.5 -27l-8 -59q-2 -15 -14 -27t-27 -12h-729q-15 0 -23.5 12t-5.5 27z M565 1649q-9 24 17 39l303 172q8 8 26 5t25 -22l27 -67q12 -30 -17 -43l-321 -138q-34 -15 -45 17z" />
<glyph unicode="&#xca;" horiz-adv-x="1122" d="M129 39l190 1356q1 15 13 27t26 12h732q15 0 23 -12t5 -27l-8 -60q-2 -15 -14 -27t-27 -12h-606l-72 -499h518q14 0 23 -12t6 -27l-8 -60q-1 -17 -13 -28t-26 -11h-518l-74 -522h608q15 0 23.5 -12t5.5 -27l-8 -59q-2 -15 -14 -27t-27 -12h-729q-15 0 -23.5 12t-5.5 27z M489 1622q-15 32 11 49l243 193q18 14 37 14h6q19 0 39 -25l172 -186q16 -19 -4 -39l-28 -31q-13 -13 -20 -15.5t-23 7.5l-160 135l-209 -145q-14 -10 -26.5 -8t-18.5 14z" />
<glyph unicode="&#xcb;" horiz-adv-x="1122" d="M129 39l190 1356q1 15 13 27t26 12h732q15 0 23 -12t5 -27l-8 -60q-2 -15 -14 -27t-27 -12h-606l-72 -499h518q14 0 23 -12t6 -27l-8 -60q-1 -17 -13 -28t-26 -11h-518l-74 -522h608q15 0 23.5 -12t5.5 -27l-8 -59q-2 -15 -14 -27t-27 -12h-729q-15 0 -23.5 12t-5.5 27z M457 1706q0 45 32 78t74 33q35 0 58.5 -24.5t23.5 -61.5q0 -44 -33 -76.5t-75 -32.5q-35 0 -57.5 24t-22.5 60zM856 1706q0 45 32.5 78t74.5 33q35 0 58 -24.5t23 -61.5q0 -44 -33 -76.5t-75 -32.5q-35 0 -57.5 24t-22.5 60z" />
<glyph unicode="&#xcc;" horiz-adv-x="565" d="M129 39l190 1356q1 15 13 27t26 12h91q14 0 22.5 -12t5.5 -27l-190 -1356q-1 -15 -13 -27t-26 -12h-90q-14 0 -23 12t-6 27zM266 1784l43 69q8 12 25 13t24 -6l256 -172q8 -5 11 -16t-4 -23l-25 -41q-7 -12 -16.5 -12.5t-28.5 8.5l-270 131q-35 17 -15 49z" />
<glyph unicode="&#xcd;" horiz-adv-x="565" d="M129 39l190 1356q1 15 13 27t26 12h91q14 0 22.5 -12t5.5 -27l-190 -1356q-1 -15 -13 -27t-26 -12h-90q-14 0 -23 12t-6 27zM242 1649q-9 25 16 39l303 172q8 8 26 5t25 -22l27 -67q12 -31 -16 -43l-322 -138q-34 -15 -45 17z" />
<glyph unicode="&#xce;" horiz-adv-x="565" d="M129 39l190 1356q1 15 13 27t26 12h91q14 0 22.5 -12t5.5 -27l-190 -1356q-1 -15 -13 -27t-26 -12h-90q-14 0 -23 12t-6 27zM168 1622q-15 32 10 49l244 193q17 14 37 14h6q19 0 39 -25l172 -186q16 -19 -4 -39l-29 -31q-13 -13 -20 -15.5t-23 7.5l-160 135l-209 -145 q-14 -10 -26.5 -8t-18.5 14z" />
<glyph unicode="&#xcf;" horiz-adv-x="565" d="M129 39l190 1356q1 15 13 27t26 12h91q14 0 22.5 -12t5.5 -27l-190 -1356q-1 -15 -13 -27t-26 -12h-90q-14 0 -23 12t-6 27zM147 1706q0 45 32.5 78t74.5 33q35 0 58.5 -24.5t23.5 -61.5q0 -44 -33.5 -76.5t-75.5 -32.5q-35 0 -57.5 24t-22.5 60zM547 1706q0 45 32 78 t74 33q35 0 58.5 -24.5t23.5 -61.5q0 -44 -33 -76.5t-75 -32.5q-35 0 -57.5 24t-22.5 60z" />
<glyph unicode="&#xd0;" horiz-adv-x="1421" d="M137 39l88 625h-55q-13 0 -21 11.5t-6 26.5l2 15q1 15 13 27t26 12h54l90 639q2 15 14 27t25 12h415q157 0 285.5 -86.5t199 -229t70.5 -307.5q0 -164 -59.5 -313.5t-160.5 -258.5t-241 -174t-294 -65h-418q-13 0 -21.5 12t-5.5 27zM307 141h264q162 0 297.5 85.5 t216 239t80.5 341.5q0 214 -118.5 350.5t-311.5 136.5h-266l-76 -538h375q15 0 23.5 -12t5.5 -27l-2 -17q-2 -15 -13 -25.5t-26 -10.5h-377z" />
<glyph unicode="&#xd1;" horiz-adv-x="1466" d="M129 39l193 1378q2 15 15 26t30 11h51l659 -1149h2l154 1090q2 15 15.5 27t31.5 12h66q17 0 26.5 -11.5t7.5 -27.5l-194 -1379q-2 -15 -15 -25.5t-30 -10.5h-51l-662 1169h-4l-150 -1110q-2 -15 -16 -27t-31 -12h-65q-17 0 -26 11.5t-7 27.5zM606 1692q8 20 21 43.5 t37.5 55.5t61.5 52.5t79 20.5q29 0 53.5 -15t40 -37t29 -44t28.5 -37t31 -15q53 0 86 96q17 43 51 23l29 -16q12 -7 15.5 -21t-1.5 -26q-7 -24 -21.5 -50.5t-38 -56t-59.5 -49t-77 -19.5q-31 0 -60 23.5t-46.5 51.5t-37.5 51.5t-36 23.5q-25 0 -46.5 -20.5t-29.5 -37 t-19 -44.5q-6 -14 -20.5 -19.5t-28.5 2.5l-33 17q-22 15 -8 47z" />
<glyph unicode="&#xd2;" horiz-adv-x="1552" d="M127 715q22 152 91 288t169.5 235.5t233 157.5t274.5 58q133 0 248.5 -58.5t193.5 -157t113.5 -236t13.5 -287.5q-21 -152 -89.5 -287.5t-169 -234t-233 -156t-276.5 -57.5q-133 0 -248 57.5t-192.5 155.5t-113 234.5t-15.5 287.5zM272 715q-22 -160 29 -296.5 t160.5 -216t251.5 -79.5t274 79.5t221 216t111 296.5q23 160 -28 297.5t-160.5 218t-251.5 80.5t-273.5 -80.5t-221 -217.5t-112.5 -298zM772 1784l43 69q8 12 25 13t24 -6l256 -172q8 -5 10.5 -16t-4.5 -23l-24 -41q-7 -12 -16.5 -12.5t-28.5 8.5l-271 131q-34 16 -14 49z " />
<glyph unicode="&#xd3;" horiz-adv-x="1552" d="M127 715q22 152 91 288t169.5 235.5t233 157.5t274.5 58q133 0 248.5 -58.5t193.5 -157t113.5 -236t13.5 -287.5q-21 -152 -89.5 -287.5t-169 -234t-233 -156t-276.5 -57.5q-133 0 -248 57.5t-192.5 155.5t-113 234.5t-15.5 287.5zM272 715q-22 -160 29 -296.5 t160.5 -216t251.5 -79.5t274 79.5t221 216t111 296.5q23 160 -28 297.5t-160.5 218t-251.5 80.5t-273.5 -80.5t-221 -217.5t-112.5 -298zM748 1649q-9 25 16 39l303 172q8 8 26 5t25 -22l27 -67q12 -30 -17 -43l-321 -138q-34 -15 -45 17z" />
<glyph unicode="&#xd4;" horiz-adv-x="1552" d="M127 715q22 152 91 288t169.5 235.5t233 157.5t274.5 58q133 0 248.5 -58.5t193.5 -157t113.5 -236t13.5 -287.5q-21 -152 -89.5 -287.5t-169 -234t-233 -156t-276.5 -57.5q-133 0 -248 57.5t-192.5 155.5t-113 234.5t-15.5 287.5zM272 715q-22 -160 29 -296.5 t160.5 -216t251.5 -79.5t274 79.5t221 216t111 296.5q23 160 -28 297.5t-160.5 218t-251.5 80.5t-273.5 -80.5t-221 -217.5t-112.5 -298zM672 1622q-15 32 10 49l244 193q18 14 37 14h6q19 0 39 -25l172 -186q16 -19 -4 -39l-29 -31q-13 -13 -20 -15.5t-23 7.5l-160 135 l-209 -145q-14 -10 -26.5 -8t-18.5 14z" />
<glyph unicode="&#xd5;" horiz-adv-x="1552" d="M127 715q22 152 91 288t169.5 235.5t233 157.5t274.5 58q133 0 248.5 -58.5t193.5 -157t113.5 -236t13.5 -287.5q-21 -152 -89.5 -287.5t-169 -234t-233 -156t-276.5 -57.5q-133 0 -248 57.5t-192.5 155.5t-113 234.5t-15.5 287.5zM272 715q-22 -160 29 -296.5 t160.5 -216t251.5 -79.5t274 79.5t221 216t111 296.5q23 160 -28 297.5t-160.5 218t-251.5 80.5t-273.5 -80.5t-221 -217.5t-112.5 -298zM668 1692q8 20 21 43.5t37 55.5t61 52.5t79 20.5q29 0 53.5 -15t40 -37t29.5 -44t29 -37t31 -15q53 0 86 96q17 43 51 23l28 -16 q26 -17 15 -47q-7 -23 -21.5 -50t-38.5 -56.5t-60 -49t-77 -19.5q-31 0 -60 23.5t-46.5 51.5t-37.5 51.5t-36 23.5t-30 -8t-22.5 -17t-18.5 -27t-13 -25.5t-10 -24.5q-6 -14 -20.5 -19.5t-28.5 2.5l-33 17q-22 15 -8 47z" />
<glyph unicode="&#xd6;" horiz-adv-x="1552" d="M127 715q22 152 91 288t169.5 235.5t233 157.5t274.5 58q133 0 248.5 -58.5t193.5 -157t113.5 -236t13.5 -287.5q-21 -152 -89.5 -287.5t-169 -234t-233 -156t-276.5 -57.5q-133 0 -248 57.5t-192.5 155.5t-113 234.5t-15.5 287.5zM272 715q-22 -160 29 -296.5 t160.5 -216t251.5 -79.5t274 79.5t221 216t111 296.5q23 160 -28 297.5t-160.5 218t-251.5 80.5t-273.5 -80.5t-221 -217.5t-112.5 -298zM651 1706q0 45 32.5 78t74.5 33q35 0 58.5 -24.5t23.5 -61.5q0 -44 -33.5 -76.5t-75.5 -32.5q-35 0 -57.5 24t-22.5 60zM1051 1706 q0 45 32 78t74 33q35 0 58.5 -24.5t23.5 -61.5q0 -44 -33.5 -76.5t-75.5 -32.5q-35 0 -57 24t-22 60z" />
<glyph unicode="&#xd7;" horiz-adv-x="929" d="M141 459.5q3 16.5 15 27.5l235 230l-166 223q-8 10 -6 27.5t14 27.5l39 35q12 10 28 10t24 -10l165 -223l242 233q11 10 24 9t23 -11l43 -47q9 -9 7.5 -26t-13.5 -27l-240 -233l170 -226q9 -12 5.5 -28t-15.5 -27l-41 -33q-29 -25 -49 -2l-170 227l-237 -229 q-11 -10 -25 -9.5t-23 9.5l-43 47q-9 9 -6 25.5z" />
<glyph unicode="&#xd8;" horiz-adv-x="1554" d="M89.5 71.5q1.5 16.5 12.5 26.5l131 127q-68 99 -96 225.5t-8 264.5q22 152 91 288t169.5 235.5t233 157.5t274.5 58q124 0 232.5 -49.5t187.5 -140.5l137 133q10 11 25 11t22 -11l10 -11q7 -11 5 -26.5t-13 -26.5l-137 -133q66 -99 93 -224t7 -261q-21 -152 -89.5 -287.5 t-169 -234t-233 -156t-276.5 -57.5q-122 0 -228.5 48t-184.5 134l-133 -127q-11 -10 -25.5 -9.5t-22.5 11.5l-8 8q-8 10 -6.5 26.5zM274 715q-30 -218 72 -383l860 827q-129 152 -325 152q-142 0 -273.5 -80.5t-221 -217.5t-112.5 -298zM393 266q124 -143 322 -143 q142 0 274 79.5t221 216t111 296.5q30 212 -68 379z" />
<glyph unicode="&#xd9;" horiz-adv-x="1363" d="M184 528l121 867q3 15 15.5 27t25.5 12h88q15 0 23.5 -12t5.5 -27l-119 -854q-25 -179 48.5 -297.5t225.5 -118.5q101 0 187.5 57.5t139.5 150.5t69 204l121 858q1 15 13 27t26 12h88q14 0 22.5 -12t5.5 -27l-121 -867q-16 -118 -61 -217t-115.5 -173.5t-171 -116 t-221.5 -41.5q-136 0 -239 71.5t-150.5 197.5t-26.5 279zM666 1784l43 69q8 12 25 13t24 -6l256 -172q8 -5 10.5 -16t-4.5 -23l-25 -41q-7 -12 -16.5 -12.5t-28.5 8.5l-270 131q-34 16 -14 49z" />
<glyph unicode="&#xda;" horiz-adv-x="1363" d="M184 528l121 867q3 15 15.5 27t25.5 12h88q15 0 23.5 -12t5.5 -27l-119 -854q-25 -179 48.5 -297.5t225.5 -118.5q101 0 187.5 57.5t139.5 150.5t69 204l121 858q1 15 13 27t26 12h88q14 0 22.5 -12t5.5 -27l-121 -867q-16 -118 -61 -217t-115.5 -173.5t-171 -116 t-221.5 -41.5q-136 0 -239 71.5t-150.5 197.5t-26.5 279zM641 1649q-9 25 16 39l304 172q8 8 26 5t25 -22l26 -67q12 -31 -16 -43l-322 -138q-34 -15 -45 17z" />
<glyph unicode="&#xdb;" horiz-adv-x="1363" d="M184 528l121 867q3 15 15.5 27t25.5 12h88q15 0 23.5 -12t5.5 -27l-119 -854q-25 -179 48.5 -297.5t225.5 -118.5q101 0 187.5 57.5t139.5 150.5t69 204l121 858q1 15 13 27t26 12h88q14 0 22.5 -12t5.5 -27l-121 -867q-16 -118 -61 -217t-115.5 -173.5t-171 -116 t-221.5 -41.5q-136 0 -239 71.5t-150.5 197.5t-26.5 279zM567 1622q-15 32 11 49l243 193q18 14 37 14h6q19 0 39 -25l172 -186q16 -19 -4 -39l-29 -31q-13 -13 -20 -15.5t-23 7.5l-159 135l-209 -145q-14 -10 -26.5 -8t-18.5 14z" />
<glyph unicode="&#xdc;" horiz-adv-x="1363" d="M184 528l121 867q3 15 15.5 27t25.5 12h88q15 0 23.5 -12t5.5 -27l-119 -854q-25 -179 48.5 -297.5t225.5 -118.5q101 0 187.5 57.5t139.5 150.5t69 204l121 858q1 15 13 27t26 12h88q14 0 22.5 -12t5.5 -27l-121 -867q-16 -118 -61 -217t-115.5 -173.5t-171 -116 t-221.5 -41.5q-136 0 -239 71.5t-150.5 197.5t-26.5 279zM543 1706q0 45 32 78t74 33q35 0 58.5 -24.5t23.5 -61.5q0 -44 -33 -76.5t-75 -32.5q-35 0 -57.5 24t-22.5 60zM942 1706q0 45 32.5 78t74.5 33q35 0 58 -24.5t23 -61.5q0 -44 -33 -76.5t-75 -32.5q-35 0 -57.5 24 t-22.5 60z" />
<glyph unicode="&#xdd;" horiz-adv-x="1060" d="M116 1418.5q8 15.5 29 15.5h95q18 0 28 -19l285 -584h4l455 584q14 19 32 19h99q23 0 28.5 -20t-8.5 -40l-540 -682l-93 -653q-1 -15 -14 -27t-27 -12h-86q-15 0 -23.5 11.5t-6.5 27.5l92 651l-348 694q-9 19 -1 34.5zM481 1649q-9 24 17 39l303 172q8 8 26 5t25 -22 l27 -67q12 -30 -17 -43l-321 -138q-34 -15 -45 17z" />
<glyph unicode="&#xde;" horiz-adv-x="1132" d="M129 39l190 1354q3 16 15 28.5t26 12.5h86q13 0 23 -12t8 -27l-31 -219h289q150 1 252.5 -117.5t102.5 -292.5q0 -134 -65.5 -250.5t-176.5 -185t-238 -68.5h-293l-30 -223q-3 -15 -15.5 -27t-25.5 -12h-86q-15 0 -24 12t-7 27zM338 414h280q121 0 217.5 104.5 t96.5 247.5q0 107 -65 180.5t-162 73.5h-281z" />
<glyph unicode="&#xdf;" horiz-adv-x="1007" d="M-20 -575l202 1417q42 302 166 457t316 155q115 0 192.5 -65.5t77.5 -192.5q0 -63 -23.5 -126.5t-57 -112.5t-66.5 -92t-56.5 -80.5t-23.5 -63.5q0 -22 19 -58t46.5 -78t55 -89t46.5 -106t19 -114q0 -140 -87 -218t-208 -78q-108 0 -192 38q-34 15 -23 48l18 55 q5 14 17 19t26 -1q80 -35 144 -35q68 0 115 50t47 131q0 41 -20 88.5t-49 89.5t-57.5 83.5t-48.5 84.5t-20 78q0 45 36 108t78.5 116.5t78.5 119t36 114.5q0 74 -43 117t-102 43q-119 0 -198.5 -122.5t-114.5 -364.5l-203 -1415q-1 -15 -14 -27t-27 -12h-74q-14 0 -22.5 12 t-5.5 27z" />
<glyph unicode="&#xe0;" d="M59 342q0 226 118 362t290 136q37 0 71.5 -9.5t56.5 -23t39 -27t24 -22.5l8 -10l26 53q9 18 29 18h45q17 0 23 -7.5t4 -25.5l-88 -755q-1 -14 -12 -22.5t-25 -8.5h-45q-24 0 -27 31l-8 55l-12 -11q-13 -11 -34.5 -26.5t-49.5 -31t-67.5 -26.5t-80.5 -11 q-122 0 -203.5 105.5t-81.5 256.5zM201 342q0 -96 46.5 -164.5t131.5 -68.5q37 0 72 14t59 33.5t43 39.5t28 34l9 14l41 362q-2 4 -6 10.5t-19 24t-33.5 30.5t-50 23.5t-67.5 10.5q-48 0 -91.5 -20.5t-80.5 -62t-59.5 -114t-22.5 -166.5zM418 1331l43 70q8 12 25 12.5 t24 -6.5l256 -172q8 -5 10.5 -16t-4.5 -23l-24 -41q-7 -12 -17 -12.5t-29 8.5l-270 131q-34 16 -14 49z" />
<glyph unicode="&#xe1;" d="M59 342q0 226 118 362t290 136q37 0 71.5 -9.5t56.5 -23t39 -27t24 -22.5l8 -10l26 53q9 18 29 18h45q17 0 23 -7.5t4 -25.5l-88 -755q-1 -14 -12 -22.5t-25 -8.5h-45q-24 0 -27 31l-8 55l-12 -11q-13 -11 -34.5 -26.5t-49.5 -31t-67.5 -26.5t-80.5 -11 q-122 0 -203.5 105.5t-81.5 256.5zM201 342q0 -96 46.5 -164.5t131.5 -68.5q37 0 72 14t59 33.5t43 39.5t28 34l9 14l41 362q-2 4 -6 10.5t-19 24t-33.5 30.5t-50 23.5t-67.5 10.5q-48 0 -91.5 -20.5t-80.5 -62t-59.5 -114t-22.5 -166.5zM393 1194q-9 24 17 39l303 172 q8 8 26 5.5t25 -21.5l27 -68q12 -30 -17 -43l-321 -137q-35 -15 -45 16z" />
<glyph unicode="&#xe2;" d="M59 342q0 226 118 362t290 136q37 0 71.5 -9.5t56.5 -23t39 -27t24 -22.5l8 -10l26 53q9 18 29 18h45q17 0 23 -7.5t4 -25.5l-88 -755q-1 -14 -12 -22.5t-25 -8.5h-45q-24 0 -27 31l-8 55l-12 -11q-13 -11 -34.5 -26.5t-49.5 -31t-67.5 -26.5t-80.5 -11 q-122 0 -203.5 105.5t-81.5 256.5zM201 342q0 -96 46.5 -164.5t131.5 -68.5q37 0 72 14t59 33.5t43 39.5t28 34l9 14l41 362q-2 4 -6 10.5t-19 24t-33.5 30.5t-50 23.5t-67.5 10.5q-48 0 -91.5 -20.5t-80.5 -62t-59.5 -114t-22.5 -166.5zM319 1171q-16 32 11 50l243 192 q18 14 37 14h6q20 0 39 -24l172 -186q16 -19 -4 -39l-28 -31q-13 -13 -20 -15.5t-23 7.5l-160 135l-209 -146q-14 -10 -26.5 -7.5t-18.5 14.5z" />
<glyph unicode="&#xe3;" d="M59 342q0 226 118 362t290 136q37 0 71.5 -9.5t56.5 -23t39 -27t24 -22.5l8 -10l26 53q9 18 29 18h45q17 0 23 -7.5t4 -25.5l-88 -755q-1 -14 -12 -22.5t-25 -8.5h-45q-24 0 -27 31l-8 55l-12 -11q-13 -11 -34.5 -26.5t-49.5 -31t-67.5 -26.5t-80.5 -11 q-122 0 -203.5 105.5t-81.5 256.5zM201 342q0 -96 46.5 -164.5t131.5 -68.5q37 0 72 14t59 33.5t43 39.5t28 34l9 14l41 362q-2 4 -6 10.5t-19 24t-33.5 30.5t-50 23.5t-67.5 10.5q-48 0 -91.5 -20.5t-80.5 -62t-59.5 -114t-22.5 -166.5zM315 1241q8 20 21 43.5t37 55.5 t60 52.5t77 20.5q37 0 66 -23t44 -50.5t34.5 -50.5t41.5 -23q53 0 86 96q17 43 52 22l28 -16q26 -17 15 -47q-7 -23 -21.5 -50t-37.5 -56.5t-58 -48.5t-74 -19q-33 0 -62 23.5t-46.5 51t-38 51t-39.5 23.5q-16 0 -30 -8t-22.5 -17t-18.5 -27t-13 -25.5t-10 -24.5 q-6 -14 -21 -19.5t-29 3.5l-32 16q-23 15 -9 47z" />
<glyph unicode="&#xe4;" d="M59 342q0 226 118 362t290 136q37 0 71.5 -9.5t56.5 -23t39 -27t24 -22.5l8 -10l26 53q9 18 29 18h45q17 0 23 -7.5t4 -25.5l-88 -755q-1 -14 -12 -22.5t-25 -8.5h-45q-24 0 -27 31l-8 55l-12 -11q-13 -11 -34.5 -26.5t-49.5 -31t-67.5 -26.5t-80.5 -11 q-122 0 -203.5 105.5t-81.5 256.5zM201 342q0 -96 46.5 -164.5t131.5 -68.5q37 0 72 14t59 33.5t43 39.5t28 34l9 14l41 362q-2 4 -6 10.5t-19 24t-33.5 30.5t-50 23.5t-67.5 10.5q-48 0 -91.5 -20.5t-80.5 -62t-59.5 -114t-22.5 -166.5zM324 1282q0 45 32.5 78t75.5 33 q35 0 57.5 -24.5t22.5 -61.5q0 -44 -33 -76.5t-76 -32.5q-34 0 -56.5 24.5t-22.5 59.5zM682 1282q0 45 32 78t74 33q36 0 59 -24.5t23 -61.5q0 -44 -32.5 -76.5t-75.5 -32.5q-35 0 -57.5 24t-22.5 60z" />
<glyph unicode="&#xe5;" d="M59 342q0 226 118 362t290 136q37 0 71.5 -9.5t56.5 -23t39 -27t24 -22.5l8 -10l26 53q9 18 29 18h45q17 0 23 -7.5t4 -25.5l-88 -755q-1 -14 -12 -22.5t-25 -8.5h-45q-24 0 -27 31l-8 55l-12 -11q-13 -11 -34.5 -26.5t-49.5 -31t-67.5 -26.5t-80.5 -11 q-122 0 -203.5 105.5t-81.5 256.5zM201 342q0 -96 46.5 -164.5t131.5 -68.5q37 0 72 14t59 33.5t43 39.5t28 34l9 14l41 362q-2 4 -6 10.5t-19 24t-33.5 30.5t-50 23.5t-67.5 10.5q-48 0 -91.5 -20.5t-80.5 -62t-59.5 -114t-22.5 -166.5zM383 1200q0 105 69 179.5t166 74.5 q74 0 124.5 -56t50.5 -136q0 -105 -70 -179.5t-166 -74.5q-75 0 -124.5 55.5t-49.5 136.5zM481 1217q0 -46 23.5 -78.5t64.5 -32.5q47 0 84 43t37 98q0 44 -22.5 74.5t-63.5 30.5q-47 0 -85 -40.5t-38 -94.5z" />
<glyph unicode="&#xe6;" horiz-adv-x="1253" d="M31 254q17 117 105 190.5t216 73.5q43 0 85 -5t63 -10l20 -5q24 128 7 171.5t-87 43.5q-106 0 -227 -45q-19 -6 -30 2t-13 24l-4 56q-3 31 37 41q14 5 38 13.5t93.5 22t132.5 13.5q85 0 125 -30t57 -83q58 51 130 82t145 31q121 0 186.5 -59.5t65.5 -155.5 q0 -137 -143 -205.5t-406 -44.5q-9 -106 45 -186t145 -80q85 0 178 61q20 13 33.5 12t26.5 -22l22 -33q10 -13 7.5 -25t-21.5 -28q-47 -38 -119.5 -66t-155.5 -28q-160 0 -241 137q-50 -56 -135.5 -96.5t-167.5 -40.5q-109 0 -169.5 75.5t-43.5 198.5zM158 250 q-10 -63 28.5 -102t98.5 -39q55 0 109 29.5t85 70.5l25 182q-52 17 -150 17q-72 0 -128 -42t-68 -116zM647 489q180 -17 283.5 18t103.5 109q0 43 -34 71t-95 28q-85 0 -160.5 -65.5t-97.5 -160.5z" />
<glyph unicode="&#xe7;" horiz-adv-x="841" d="M61 348q0 204 131 348t312 144q83 0 147.5 -38.5t104.5 -109.5q7 -14 2 -29t-19 -24l-37 -27q-32 -22 -51 9q-52 81 -153 81q-113 0 -200 -99.5t-87 -237.5q0 -107 54.5 -181.5t140.5 -74.5q35 0 68 13t57 34t39.5 38t27.5 35q10 17 25 20.5t28 -7.5l43 -37q22 -19 2 -53 q-43 -72 -124 -121.5t-181 -50.5l-10 -91q75 -14 119.5 -64.5t44.5 -131.5q0 -92 -59 -158.5t-156 -66.5q-44 0 -82.5 20.5t-57.5 52.5q-18 26 7 51l24 23q9 9 21 9t20 -9q30 -37 74 -37q40 0 67 33t27 80q0 28 -11.5 49t-33.5 33t-41 18t-47 12q-34 7 -27 41l23 154 q-100 35 -166 130t-66 220z" />
<glyph unicode="&#xe8;" horiz-adv-x="825" d="M61 342q0 133 54.5 246.5t155 182.5t225.5 69q121 0 186.5 -59.5t65.5 -155.5q0 -137 -143 -205.5t-406 -44.5q-9 -106 45 -186t145 -80q88 0 184 63q34 20 52 -10l24 -35q17 -27 -14 -53q-128 -94 -275 -94q-129 0 -214 106t-85 256zM217 481q178 -17 283.5 21.5 t105.5 113.5q0 43 -34 71t-95 28q-85 0 -161.5 -69.5t-98.5 -164.5zM371 1331l43 70q8 12 25 12.5t24 -6.5l256 -172q8 -5 10.5 -16t-4.5 -23l-25 -41q-7 -12 -16.5 -12.5t-28.5 8.5l-270 131q-34 16 -14 49z" />
<glyph unicode="&#xe9;" horiz-adv-x="825" d="M61 342q0 133 54.5 246.5t155 182.5t225.5 69q121 0 186.5 -59.5t65.5 -155.5q0 -137 -143 -205.5t-406 -44.5q-9 -106 45 -186t145 -80q88 0 184 63q34 20 52 -10l24 -35q17 -27 -14 -53q-128 -94 -275 -94q-129 0 -214 106t-85 256zM217 481q178 -17 283.5 21.5 t105.5 113.5q0 43 -34 71t-95 28q-85 0 -161.5 -69.5t-98.5 -164.5zM346 1194q-9 25 16 39l304 172q8 8 26 5.5t25 -21.5l26 -68q12 -31 -16 -43l-321 -137q-35 -16 -46 16z" />
<glyph unicode="&#xea;" horiz-adv-x="825" d="M61 342q0 133 54.5 246.5t155 182.5t225.5 69q121 0 186.5 -59.5t65.5 -155.5q0 -137 -143 -205.5t-406 -44.5q-9 -106 45 -186t145 -80q88 0 184 63q34 20 52 -10l24 -35q17 -27 -14 -53q-128 -94 -275 -94q-129 0 -214 106t-85 256zM217 481q178 -17 283.5 21.5 t105.5 113.5q0 43 -34 71t-95 28q-85 0 -161.5 -69.5t-98.5 -164.5zM274 1171q-16 32 11 50l243 192q18 14 37 14h6q20 0 39 -24l172 -186q16 -19 -4 -39l-28 -31q-13 -13 -20 -15.5t-23 7.5l-160 135l-209 -146q-14 -10 -26.5 -7.5t-18.5 14.5z" />
<glyph unicode="&#xeb;" horiz-adv-x="825" d="M61 342q0 133 54.5 246.5t155 182.5t225.5 69q121 0 186.5 -59.5t65.5 -155.5q0 -137 -143 -205.5t-406 -44.5q-9 -106 45 -186t145 -80q88 0 184 63q34 20 52 -10l24 -35q17 -27 -14 -53q-128 -94 -275 -94q-129 0 -214 106t-85 256zM217 481q178 -17 283.5 21.5 t105.5 113.5q0 43 -34 71t-95 28q-85 0 -161.5 -69.5t-98.5 -164.5zM276 1282q0 45 33 78t76 33q35 0 57.5 -24.5t22.5 -61.5q0 -44 -33 -76.5t-76 -32.5q-34 0 -57 24.5t-23 59.5zM635 1282q0 45 32 78t74 33q36 0 59 -24.5t23 -61.5q0 -44 -32.5 -76.5t-75.5 -32.5 q-35 0 -57.5 24t-22.5 60z" />
<glyph unicode="&#xec;" horiz-adv-x="423" d="M68 39l102 741q3 15 15.5 27t25.5 12h72q13 0 22.5 -12t7.5 -27l-104 -741q-1 -15 -14 -27t-27 -12h-72q-13 0 -21.5 12t-6.5 27zM137 1331l43 70q8 12 25 12.5t24 -6.5l256 -172q8 -5 11 -16t-4 -23l-25 -41q-7 -12 -16.5 -12.5t-28.5 8.5l-270 131q-35 17 -15 49z" />
<glyph unicode="&#xed;" horiz-adv-x="423" d="M68 39l102 741q3 15 15.5 27t25.5 12h72q13 0 22.5 -12t7.5 -27l-104 -741q-1 -15 -14 -27t-27 -12h-72q-13 0 -21.5 12t-6.5 27zM113 1194q-9 25 16 39l303 172q8 8 26 5.5t25 -21.5l27 -68q12 -31 -16 -43l-322 -137q-35 -15 -45 16z" />
<glyph unicode="&#xee;" horiz-adv-x="423" d="M37 1171q-16 33 10 50l244 192q17 14 37 14h6q20 0 39 -24l172 -186q16 -19 -4 -39l-29 -31q-13 -13 -20 -15.5t-23 7.5l-160 135l-209 -146q-14 -10 -26.5 -7.5t-18.5 14.5zM66 39l102 741q3 15 15.5 27t25.5 12h72q13 0 22.5 -12t7.5 -27l-104 -741q-1 -15 -14 -27 t-27 -12h-72q-13 0 -21.5 12t-6.5 27z" />
<glyph unicode="&#xef;" horiz-adv-x="423" d="M41 1282q0 45 33 78t76 33q35 0 57 -24.5t22 -61.5q0 -44 -32.5 -76.5t-75.5 -32.5q-34 0 -57 24.5t-23 59.5zM68 39l102 741q3 15 15.5 27t25.5 12h72q13 0 22.5 -12t7.5 -27l-104 -741q-1 -15 -14 -27t-27 -12h-72q-13 0 -21.5 12t-6.5 27zM399 1282q0 45 32.5 78 t74.5 33q36 0 59 -24.5t23 -61.5q0 -44 -33 -76.5t-76 -32.5q-35 0 -57.5 24t-22.5 60z" />
<glyph unicode="&#xf0;" horiz-adv-x="1021" d="M63 385q0 113 37.5 209.5t101 161t147.5 101t175 36.5q21 0 42 -2.5t39.5 -6.5t36.5 -10t33 -12t29 -13.5t25 -13.5t20.5 -12.5t15.5 -10.5t11 -8l4 -3q-19 189 -178 352l-192 -115q-14 -7 -26 -2t-17 17l-7 14q-6 12 0 28t19 23l156 94q-93 79 -160 111q-30 13 -10 49 l32 53q14 25 43 15q122 -57 226 -152l147 82q31 18 45 -14l6 -15q6 -12 0.5 -28t-18.5 -23l-115 -63q88 -99 145.5 -239.5t57.5 -305.5q0 -187 -63 -346t-184 -257.5t-275 -98.5q-149 0 -249 118.5t-100 286.5zM207 393q0 -115 62.5 -196.5t160.5 -81.5q68 0 126.5 33.5 t99 87.5t69.5 122t42.5 137t14.5 132l-6 7q-6 8 -17.5 19.5t-27.5 26t-38.5 28.5t-47.5 25.5t-57.5 19t-65.5 7.5q-125 0 -220 -108.5t-95 -258.5z" />
<glyph unicode="&#xf1;" horiz-adv-x="946" d="M68 39l102 741q2 16 12.5 27.5t28.5 11.5h41q24 0 27 -24l8 -64l15 11q14 11 39.5 27.5t58 32.5t75.5 27t86 11q144 0 204.5 -101t37.5 -268l-62 -432q-1 -15 -14 -27t-27 -12h-73q-14 0 -23 12t-6 27l59 432q17 115 -17 173t-112 58q-37 0 -75 -12t-66.5 -29t-51.5 -34 t-37 -29l-13 -12l-76 -547q-2 -16 -14 -27.5t-29 -11.5h-70q-14 0 -22.5 12t-5.5 27zM289 1241q6 15 14.5 32.5t26.5 43.5t38.5 46.5t51 35t63.5 14.5q37 0 66.5 -23t44 -50.5t34.5 -50.5t42 -23q53 0 86 96q17 42 51 22l29 -16q12 -7 15.5 -21t-1.5 -26q-7 -23 -21.5 -50 t-37.5 -56.5t-58 -48.5t-74 -19q-33 0 -62 23.5t-46.5 51t-38 51t-39.5 23.5q-16 0 -30 -8t-22.5 -17t-18.5 -27t-13 -25.5t-10 -24.5q-6 -14 -20.5 -19t-28.5 3l-33 16q-22 15 -8 47z" />
<glyph unicode="&#xf2;" horiz-adv-x="911" d="M59 352q0 198 126 343t304 145q130 0 224 -110t94 -261q0 -130 -57 -242.5t-156 -179.5t-217 -67q-130 0 -224 110t-94 262zM199 365q0 -107 54 -181.5t138 -74.5q108 0 191.5 104t83.5 244q0 103 -54 174t-137 71q-109 0 -192.5 -99.5t-83.5 -237.5zM375 1331l43 70 q8 12 25 12.5t24 -6.5l256 -172q8 -5 10.5 -16t-4.5 -23l-24 -41q-7 -12 -17 -12.5t-29 8.5l-270 131q-34 16 -14 49z" />
<glyph unicode="&#xf3;" horiz-adv-x="911" d="M59 352q0 198 126 343t304 145q130 0 224 -110t94 -261q0 -130 -57 -242.5t-156 -179.5t-217 -67q-130 0 -224 110t-94 262zM199 365q0 -107 54 -181.5t138 -74.5q108 0 191.5 104t83.5 244q0 103 -54 174t-137 71q-109 0 -192.5 -99.5t-83.5 -237.5zM350 1194 q-9 24 17 39l303 172q8 8 26 5.5t25 -21.5l27 -68q12 -30 -17 -43l-321 -137q-35 -15 -45 16z" />
<glyph unicode="&#xf4;" horiz-adv-x="911" d="M59 352q0 198 126 343t304 145q130 0 224 -110t94 -261q0 -130 -57 -242.5t-156 -179.5t-217 -67q-130 0 -224 110t-94 262zM199 365q0 -107 54 -181.5t138 -74.5q108 0 191.5 104t83.5 244q0 103 -54 174t-137 71q-109 0 -192.5 -99.5t-83.5 -237.5zM276 1171 q-16 32 11 50l243 192q18 14 37 14h6q20 0 39 -24l172 -186q16 -19 -4 -39l-28 -31q-13 -13 -20 -15.5t-23 7.5l-160 135l-209 -146q-14 -10 -26.5 -7.5t-18.5 14.5z" />
<glyph unicode="&#xf5;" horiz-adv-x="911" d="M59 352q0 198 126 343t304 145q130 0 224 -110t94 -261q0 -130 -57 -242.5t-156 -179.5t-217 -67q-130 0 -224 110t-94 262zM199 365q0 -107 54 -181.5t138 -74.5q108 0 191.5 104t83.5 244q0 103 -54 174t-137 71q-109 0 -192.5 -99.5t-83.5 -237.5zM274 1241 q8 20 21 43.5t37 55.5t60 52.5t77 20.5q37 0 66 -23t44 -50.5t34.5 -50.5t41.5 -23q53 0 86 96q17 43 52 22l28 -16q26 -17 15 -47q-7 -23 -21.5 -50t-37.5 -56.5t-58 -48.5t-74 -19q-33 0 -62 23.5t-46.5 51t-38 51t-39.5 23.5q-16 0 -30 -8t-22.5 -17t-18.5 -27t-13 -25.5 t-10 -24.5q-6 -14 -21 -19.5t-29 3.5l-32 16q-23 15 -9 47z" />
<glyph unicode="&#xf6;" horiz-adv-x="911" d="M59 352q0 198 126 343t304 145q130 0 224 -110t94 -261q0 -130 -57 -242.5t-156 -179.5t-217 -67q-130 0 -224 110t-94 262zM199 365q0 -107 54 -181.5t138 -74.5q108 0 191.5 104t83.5 244q0 103 -54 174t-137 71q-109 0 -192.5 -99.5t-83.5 -237.5zM281 1282 q0 45 32.5 78t75.5 33q35 0 57.5 -24.5t22.5 -61.5q0 -44 -33 -76.5t-76 -32.5q-34 0 -56.5 24.5t-22.5 59.5zM639 1282q0 45 32 78t74 33q36 0 59 -24.5t23 -61.5q0 -44 -32.5 -76.5t-75.5 -32.5q-35 0 -57.5 24t-22.5 60z" />
<glyph unicode="&#xf7;" horiz-adv-x="1015" d="M137 682l8 57q1 15 14 27t27 12h705q13 0 22 -12t7 -27l-9 -57q-1 -15 -13 -27t-26 -12h-706q-13 0 -22 12t-7 27zM362 336q0 54 38 92.5t87 38.5q41 0 68 -29t27 -71q0 -54 -38 -94t-89 -40q-39 0 -66 30.5t-27 72.5zM465 1069q0 55 38.5 93t88.5 38q39 0 65.5 -29 t26.5 -71q0 -54 -37.5 -93.5t-87.5 -39.5q-41 0 -67.5 30t-26.5 72z" />
<glyph unicode="&#xf8;" horiz-adv-x="911" d="M54.5 86q2.5 16 13.5 27l41 41q-50 92 -50 198q0 198 126 343t304 145q130 0 222 -107l49 47q12 12 27 12t22 -12l10 -10q9 -10 7 -26.5t-15 -26.5l-53 -51q49 -90 49 -197q0 -130 -57 -242.5t-156 -179.5t-217 -67q-129 0 -221 106l-37 -37q-12 -12 -26 -11.5t-23 11.5 l-9 10q-9 11 -6.5 27zM199 365q0 -65 16 -109l393 379q-54 70 -133 70q-109 0 -192.5 -101t-83.5 -239zM256 180q51 -67 135 -67q109 0 192 102.5t83 241.5q0 48 -17 104z" />
<glyph unicode="&#xf9;" horiz-adv-x="929" d="M102 350l60 430q3 15 15.5 27t25.5 12h73q13 0 23 -12t8 -27l-61 -432q-17 -115 18 -177t111 -62q26 0 52.5 7t48 18t41 24t34 26t25 24t16.5 18l6 7l78 547q2 15 14 27t27 12h69q13 0 23 -12t8 -27l-104 -741q-2 -16 -13 -27.5t-28 -11.5h-41q-20 0 -27 35l-8 53l-8 -7 q-8 -7 -19 -16t-28 -21t-38.5 -23t-46 -20.5t-55 -15t-61.5 -5.5q-148 0 -205 99.5t-33 270.5zM383 1331l43 70q8 12 25 12.5t24 -6.5l256 -172q8 -5 10.5 -16t-4.5 -23l-24 -41q-7 -12 -16.5 -12.5t-28.5 8.5l-271 131q-34 16 -14 49z" />
<glyph unicode="&#xfa;" horiz-adv-x="929" d="M102 350l60 430q3 15 15.5 27t25.5 12h73q13 0 23 -12t8 -27l-61 -432q-17 -115 18 -177t111 -62q26 0 52.5 7t48 18t41 24t34 26t25 24t16.5 18l6 7l78 547q2 15 14 27t27 12h69q13 0 23 -12t8 -27l-104 -741q-2 -16 -13 -27.5t-28 -11.5h-41q-20 0 -27 35l-8 53l-8 -7 q-8 -7 -19 -16t-28 -21t-38.5 -23t-46 -20.5t-55 -15t-61.5 -5.5q-148 0 -205 99.5t-33 270.5zM360 1194q-9 24 17 39l303 172q8 8 26 5.5t25 -21.5l27 -68q12 -30 -17 -43l-321 -137q-35 -15 -45 16z" />
<glyph unicode="&#xfb;" horiz-adv-x="929" d="M102 350l60 430q3 15 15.5 27t25.5 12h73q13 0 23 -12t8 -27l-61 -432q-17 -115 18 -177t111 -62q26 0 52.5 7t48 18t41 24t34 26t25 24t16.5 18l6 7l78 547q2 15 14 27t27 12h69q13 0 23 -12t8 -27l-104 -741q-2 -16 -13 -27.5t-28 -11.5h-41q-20 0 -27 35l-8 53l-8 -7 q-8 -7 -19 -16t-28 -21t-38.5 -23t-46 -20.5t-55 -15t-61.5 -5.5q-148 0 -205 99.5t-33 270.5zM287 1171q-16 33 10 50l244 192q17 14 37 14h6q20 0 39 -24l172 -186q16 -19 -4 -39l-29 -31q-13 -13 -20 -15.5t-23 7.5l-160 135l-209 -146q-14 -10 -26.5 -7.5t-18.5 14.5z " />
<glyph unicode="&#xfc;" horiz-adv-x="929" d="M102 350l60 430q3 15 15.5 27t25.5 12h73q13 0 23 -12t8 -27l-61 -432q-17 -115 18 -177t111 -62q26 0 52.5 7t48 18t41 24t34 26t25 24t16.5 18l6 7l78 547q2 15 14 27t27 12h69q13 0 23 -12t8 -27l-104 -741q-2 -16 -13 -27.5t-28 -11.5h-41q-20 0 -27 35l-8 53l-8 -7 q-8 -7 -19 -16t-28 -21t-38.5 -23t-46 -20.5t-55 -15t-61.5 -5.5q-148 0 -205 99.5t-33 270.5zM289 1282q0 45 32.5 78t75.5 33q35 0 57.5 -24.5t22.5 -61.5q0 -44 -32.5 -76.5t-75.5 -32.5q-34 0 -57 24.5t-23 59.5zM647 1282q0 45 32.5 78t74.5 33q36 0 59 -24.5t23 -61.5 q0 -44 -33 -76.5t-76 -32.5q-35 0 -57.5 24t-22.5 60z" />
<glyph unicode="&#xfd;" horiz-adv-x="872" d="M-43 -602.5q-6 11.5 6 33.5l322 571l-230 772q-6 20 3.5 32.5t31.5 12.5h72q22 0 28 -22l183 -635h2l348 635q11 22 35 22h80q20 0 27 -13.5t-3 -33.5l-758 -1362q-12 -24 -34 -24h-86q-21 0 -27 11.5zM330 1194q-9 25 16 39l303 172q8 8 26 5.5t25 -21.5l27 -68 q12 -31 -16 -43l-322 -137q-35 -15 -45 16z" />
<glyph unicode="&#xfe;" horiz-adv-x="923" d="M-18 -575l278 1970q2 15 14 27t25 12h74q13 0 21.5 -12t6.5 -27l-88 -633l11 8q10 8 28.5 19.5t42.5 23t58 19.5t69 8q87 0 155.5 -53.5t104 -136.5t35.5 -177q0 -136 -54.5 -248.5t-152 -178.5t-217.5 -66q-31 0 -60.5 7t-50 16.5t-36 19.5t-24 17t-9.5 7l-88 -622 q-1 -15 -14 -27t-27 -12h-72q-13 0 -22.5 12t-7.5 27zM233 188q1 0 9 -7.5t23 -17.5t33.5 -20.5t44.5 -18t52 -7.5q116 0 197.5 100t81.5 246q0 104 -49.5 176t-137.5 72q-51 0 -100 -25.5t-73 -50.5l-23 -25q-41 -291 -58 -422z" />
<glyph unicode="&#xff;" horiz-adv-x="872" d="M-43 -602.5q-6 11.5 6 33.5l322 571l-230 772q-6 20 3.5 32.5t31.5 12.5h72q22 0 28 -22l183 -635h2l348 635q11 22 35 22h80q20 0 27 -13.5t-3 -33.5l-758 -1362q-12 -24 -34 -24h-86q-21 0 -27 11.5zM258 1282q0 45 33 78t76 33q35 0 57 -24.5t22 -61.5 q0 -44 -32.5 -76.5t-75.5 -32.5q-34 0 -57 24.5t-23 59.5zM616 1282q0 45 32.5 78t74.5 33q36 0 59 -24.5t23 -61.5q0 -44 -33 -76.5t-76 -32.5q-35 0 -57.5 24t-22.5 60z" />
<glyph unicode="&#x152;" horiz-adv-x="1820" d="M125 635q0 163 62.5 314t166.5 261.5t247.5 177t297.5 66.5q38 0 78 -5t61 -10l21 -5h729q14 0 22.5 -11.5t6.5 -27.5l-9 -60q-2 -15 -14 -27t-25 -12h-608l-69 -499h516q14 0 23.5 -12t6.5 -27l-10 -60q-3 -17 -14 -28t-25 -11h-518l-74 -522h609q14 0 22 -11.5t6 -27.5 l-8 -59q-2 -15 -14 -27t-25 -12h-731q-82 -20 -164 -20q-115 0 -219.5 50.5t-181 137t-121.5 208.5t-45 259zM272 635q0 -104 33 -198t91 -163.5t140.5 -110t176.5 -40.5q66 0 129 14l162 1155q-70 17 -125 17q-115 0 -226 -54.5t-194.5 -144.5t-135 -215.5t-51.5 -259.5z " />
<glyph unicode="&#x153;" horiz-adv-x="1411" d="M59 350q0 130 57 242.5t156.5 180t216.5 67.5q84 0 148.5 -47.5t105.5 -126.5q61 79 151 126.5t187 47.5q121 0 186.5 -59.5t65.5 -155.5q0 -137 -143 -205.5t-406 -44.5q-9 -106 45.5 -186t145.5 -80q85 0 178 61q41 24 59 -8l19 -31q11 -14 10 -27.5t-20 -29.5 q-128 -94 -275 -94q-87 0 -151 44t-103 121q-63 -74 -148 -119.5t-173 -45.5q-136 0 -224 107.5t-88 262.5zM199 352q0 -98 52 -167.5t136 -69.5q109 0 193 100.5t84 239.5q0 105 -54 177.5t-143 72.5q-104 0 -186 -103.5t-82 -249.5zM805 489q180 -17 283.5 18t103.5 109 q0 43 -34 71t-95 28q-85 0 -160.5 -65.5t-97.5 -160.5z" />
<glyph unicode="&#x178;" horiz-adv-x="1060" d="M116 1418.5q8 15.5 29 15.5h95q18 0 28 -19l285 -584h4l455 584q14 19 32 19h99q23 0 28.5 -20t-8.5 -40l-540 -682l-93 -653q-1 -15 -14 -27t-27 -12h-86q-15 0 -23.5 11.5t-6.5 27.5l92 651l-348 694q-9 19 -1 34.5zM383 1706q0 45 32 78t74 33q35 0 58.5 -24.5 t23.5 -61.5q0 -44 -33 -76.5t-75 -32.5q-35 0 -57.5 24t-22.5 60zM782 1706q0 45 32.5 78t74.5 33q35 0 58.5 -24.5t23.5 -61.5q0 -44 -33.5 -76.5t-75.5 -32.5q-35 0 -57.5 24t-22.5 60z" />
<glyph unicode="&#x2c6;" horiz-adv-x="688" d="M129 1171q-16 33 10 50l244 192q18 14 37 14h6q20 0 39 -24l172 -186q16 -19 -4 -39l-29 -31q-13 -13 -20 -15.5t-23 7.5l-160 135l-208 -146q-14 -10 -27 -7.5t-19 14.5z" />
<glyph unicode="&#x2dc;" horiz-adv-x="700" d="M123 1241q6 15 14.5 32.5t26.5 43.5t38.5 46.5t51 35t63.5 14.5q37 0 66.5 -23t44 -50.5t34.5 -50.5t42 -23q53 0 86 96q17 42 51 22l29 -16q12 -7 15.5 -21t-1.5 -26q-10 -33 -31 -69.5t-64.5 -70.5t-94.5 -34q-33 0 -62.5 23.5t-46.5 51t-38 51t-40 23.5q-16 0 -30 -8 t-22.5 -17t-18.5 -27t-13 -25.5t-10 -24.5q-6 -14 -20.5 -19t-28.5 3l-33 16q-22 15 -8 47z" />
<glyph unicode="&#x2000;" horiz-adv-x="999" />
<glyph unicode="&#x2001;" horiz-adv-x="1999" />
<glyph unicode="&#x2002;" horiz-adv-x="999" />
<glyph unicode="&#x2003;" horiz-adv-x="1999" />
<glyph unicode="&#x2004;" horiz-adv-x="666" />
<glyph unicode="&#x2005;" horiz-adv-x="499" />
<glyph unicode="&#x2006;" horiz-adv-x="333" />
<glyph unicode="&#x2007;" horiz-adv-x="333" />
<glyph unicode="&#x2008;" horiz-adv-x="249" />
<glyph unicode="&#x2009;" horiz-adv-x="399" />
<glyph unicode="&#x200a;" horiz-adv-x="111" />
<glyph unicode="&#x2010;" horiz-adv-x="800" d="M156 487l6 39q3 17 14.5 28t26.5 11h391q15 0 23.5 -11t5.5 -28l-7 -39q-3 -15 -14.5 -25.5t-26.5 -10.5h-389q-15 0 -24 10.5t-6 25.5z" />
<glyph unicode="&#x2011;" horiz-adv-x="800" d="M156 487l6 39q3 17 14.5 28t26.5 11h391q15 0 23.5 -11t5.5 -28l-7 -39q-3 -15 -14.5 -25.5t-26.5 -10.5h-389q-15 0 -24 10.5t-6 25.5z" />
<glyph unicode="&#x2012;" horiz-adv-x="800" d="M156 487l6 39q3 17 14.5 28t26.5 11h391q15 0 23.5 -11t5.5 -28l-7 -39q-3 -15 -14.5 -25.5t-26.5 -10.5h-389q-15 0 -24 10.5t-6 25.5z" />
<glyph unicode="&#x2013;" horiz-adv-x="1105" d="M174 494l4 22q3 17 14.5 28t26.5 11h686q15 0 24.5 -11t6.5 -28l-4 -22q-3 -16 -13.5 -26.5t-25.5 -10.5h-688q-15 0 -24.5 11t-6.5 26z" />
<glyph unicode="&#x2014;" horiz-adv-x="1511" d="M174 494l4 22q3 17 14.5 28t26.5 11h1092q15 0 24 -11t6 -28l-4 -22q-3 -16 -14 -26.5t-25 -10.5h-1093q-15 0 -24.5 11t-6.5 26z" />
<glyph unicode="&#x2018;" horiz-adv-x="401" d="M141 1012q0 67 22.5 135.5t58 124t68 94.5t64.5 70q28 25 45 4l23 -29q8 -16 4 -24.5t-20 -24.5q-132 -115 -154 -258q6 2 29 2q39 0 65.5 -30t26.5 -72q0 -55 -38.5 -93.5t-88.5 -38.5q-45 0 -75 32.5t-30 107.5z" />
<glyph unicode="&#x2019;" horiz-adv-x="395" d="M139 932q3 10 7.5 16t15.5 17q131 114 153 258q-6 -2 -28 -2q-39 0 -65.5 30t-26.5 72q0 55 38.5 93t88.5 38q45 0 74.5 -32t29.5 -107q0 -67 -22.5 -135.5t-58 -124t-68 -94.5t-64.5 -70q-28 -25 -45 -4l-23 28q-9 7 -6 17z" />
<glyph unicode="&#x201a;" horiz-adv-x="460" d="M-2 -301q4 9 20 25q132 115 154 258q-6 -2 -29 -2q-39 0 -65.5 30t-26.5 72q0 54 38.5 92.5t88.5 38.5q45 0 75 -32t30 -107q0 -67 -22.5 -135.5t-58 -124t-68 -94.5t-64.5 -70q-28 -25 -45 -4l-23 28q-8 16 -4 25z" />
<glyph unicode="&#x201c;" horiz-adv-x="741" d="M141 1012q0 67 22.5 135.5t58 124t68 94.5t64.5 70q28 25 45 4l23 -29q8 -16 4 -24.5t-20 -24.5q-132 -115 -154 -258q6 2 29 2q39 0 65.5 -30t26.5 -72q0 -55 -38.5 -93.5t-88.5 -38.5q-45 0 -75 32.5t-30 107.5zM481 1012q0 67 22.5 135.5t58 124t68 94.5t64.5 70 q28 25 45 4l23 -29q5 -7 6 -12.5t-3 -12.5t-7.5 -11t-12.5 -13q-131 -114 -153 -258q6 2 29 2q39 0 65.5 -30t26.5 -72q0 -55 -38.5 -93.5t-88.5 -38.5q-45 0 -75 32.5t-30 107.5z" />
<glyph unicode="&#x201d;" horiz-adv-x="735" d="M139 932q3 10 7.5 16t15.5 17q131 114 153 258q-6 -2 -28 -2q-39 0 -65.5 30t-26.5 72q0 55 38.5 93t88.5 38q45 0 74.5 -32t29.5 -107q0 -67 -22.5 -135.5t-58 -124t-68 -94.5t-64.5 -70q-28 -25 -45 -4l-23 28q-9 7 -6 17zM479 932q3 10 7.5 16t15.5 17 q131 114 153 258q-6 -2 -28 -2q-39 0 -65.5 30t-26.5 72q0 55 38.5 93t88.5 38q45 0 74.5 -32t29.5 -107q0 -67 -22.5 -135.5t-58 -124t-68 -94.5t-64.5 -70q-28 -25 -45 -4l-23 28q-9 7 -6 17z" />
<glyph unicode="&#x201e;" horiz-adv-x="798" d="M-1.5 -308.5q4.5 14.5 19.5 27.5q61 55 93 103q48 74 59 155q-6 -2 -27 -2q-40 0 -67 30.5t-27 72.5q0 54 38.5 92.5t88.5 38.5q46 0 76.5 -32t30.5 -107q0 -67 -22.5 -135.5t-58 -124t-68.5 -95t-66 -69.5q-28 -25 -45 -4l-21 28q-8 7 -3.5 21.5zM334 -301q4 9 20 25 q132 115 154 258q-6 -2 -29 -2q-39 0 -65.5 30t-26.5 72q0 54 38.5 92.5t88.5 38.5q45 0 74.5 -32t29.5 -107q0 -67 -22 -135.5t-58 -124t-68 -95t-64 -69.5q-28 -25 -46 -4l-22 28q-8 16 -4 25z" />
<glyph unicode="&#x2022;" horiz-adv-x="661" d="M127 432q0 100 71.5 175t161.5 75q77 0 128 -57t51 -138q0 -99 -72.5 -171t-167.5 -72q-73 0 -122.5 55.5t-49.5 132.5z" />
<glyph unicode="&#x2026;" horiz-adv-x="1163" d="M39 82q0 54 38.5 92.5t88.5 38.5q41 0 67.5 -29.5t26.5 -72.5q0 -54 -38 -92.5t-89 -38.5q-41 0 -67.5 30t-26.5 72zM401 82q0 54 38.5 92.5t88.5 38.5q41 0 68 -29.5t27 -72.5q0 -54 -38 -92.5t-89 -38.5q-39 0 -67 30t-28 72zM770 82q0 54 38 92.5t89 38.5 q41 0 67.5 -29t26.5 -71q0 -54 -38 -93.5t-89 -39.5q-41 0 -67.5 30t-26.5 72z" />
<glyph unicode="&#x202f;" horiz-adv-x="399" />
<glyph unicode="&#x2039;" horiz-adv-x="489" d="M61 397q-11 22 7 49l233 304q19 24 41 24h45q23 0 28 -19t-9 -44l-177 -295l80 -291q6 -26 -3.5 -44t-33.5 -18h-36q-18 0 -27 17z" />
<glyph unicode="&#x203a;" horiz-adv-x="487" d="M31.5 82.5q-4.5 19.5 9.5 44.5l176 295l-80 291q-6 26 3.5 43.5t33.5 17.5h37q19 0 27 -16l147 -318q11 -23 -6 -49l-234 -303q-20 -25 -41 -25h-45q-23 0 -27.5 19.5z" />
<glyph unicode="&#x205f;" horiz-adv-x="499" />
<glyph unicode="&#x20ac;" horiz-adv-x="1394" d="M74 557l2 14q3 15 14.5 27t24.5 12h75q0 80 15 154h-68q-13 0 -21.5 12t-6.5 27l2 14q1 15 13 27t26 12h79q82 265 279.5 431.5t458.5 166.5q134 0 233.5 -48t185.5 -142q9 -12 7.5 -29t-13.5 -29l-57 -43q-14 -14 -29 -14.5t-28 16.5q-57 70 -142 106t-180 36 q-175 0 -326.5 -128.5t-218.5 -322.5h504q15 0 23.5 -12t5.5 -27l-2 -16q-1 -15 -13 -26t-26 -11h-518q-15 -64 -15 -154h437q15 0 23 -12t5 -27l-2 -16q-2 -15 -13 -26t-26 -11h-417q28 -171 141 -280t274 -109q54 0 102.5 12t95.5 37.5t79 47.5t82 61q26 21 45 6l61 -60 q10 -14 6 -28.5t-16 -26.5q-204 -198 -475 -198q-220 0 -379 152t-184 386h-95q-13 0 -21.5 12t-6.5 27z" />
<glyph unicode="&#x2122;" horiz-adv-x="1329" d="M203 1372l4 23q3 15 14.5 27t24.5 12h356q15 0 24.5 -12t6.5 -27l-4 -23q-3 -17 -14.5 -28t-26.5 -11h-127l-68 -479q-1 -15 -13 -27t-26 -12h-32q-15 0 -23.5 12t-5.5 27l67 479h-129q-14 0 -22.5 11t-5.5 28zM621 862l172 551q12 31 41 31h6q23 0 28 -23l90 -434 l216 434q9 23 34 23h6q13 0 21 -9t10 -22l21 -553q0 -19 -12 -32t-29 -13h-31q-31 0 -31 35l-12 338l-180 -361q-7 -18 -33 -18h-10q-26 0 -29 20l-76 359l-108 -340q-12 -33 -41 -33h-25q-18 0 -26 14t-2 33z" />
<glyph unicode="&#xe000;" horiz-adv-x="819" d="M0 0v819h819v-819h-819z" />
<glyph unicode="&#xfb03;" horiz-adv-x="1517" d="M33 -575l180 1271h-104q-15 0 -24 12t-7 27l6 45q3 17 14.5 28t26.5 11h104l33 232q28 193 135 288t265 95q143 0 229 -80q93 100 246 100q82 0 155 -32.5t109 -63.5q9 -7 9.5 -22t-7.5 -25l-41 -51q-17 -24 -49 -3q-26 20 -81 45t-110 25q-70 0 -125 -56.5t-71 -166.5 l-39 -285h489q13 0 22 -12t7 -27l-105 -741q-1 -15 -13.5 -27t-26.5 -12h-72q-14 0 -23 12t-6 27l92 657h-383l-180 -1271q-1 -15 -14 -27t-27 -12h-74q-14 0 -22.5 12t-5.5 27l180 1271h-369l-180 -1271q-1 -15 -14 -27t-27 -12h-74q-14 0 -22.5 12t-5.5 27zM375 819h366 l41 287q7 58 31 131q-17 26 -65.5 48t-104.5 22q-85 0 -151 -61t-86 -195z" />
<glyph unicode="&#xfb04;" horiz-adv-x="1525" d="M35 -575l178 1271h-104q-15 0 -24 12t-7 27l6 45q3 17 14.5 28t26.5 11h104l33 232q28 193 138 288t262 95q131 0 229 -80q93 100 254 100q42 0 80.5 -10.5t63.5 -26t44.5 -31t28.5 -26.5l8 -10l23 51q14 33 41 33h34q13 0 23 -12t8 -27l-190 -1356q-3 -15 -15.5 -27 t-25.5 -12h-72q-13 0 -23 12t-8 27l162 1149l-4 7q-4 7 -12 18.5t-19 25t-27.5 27.5t-35 25.5t-44 18.5t-52.5 7q-73 0 -132 -51t-75 -160l-39 -287h203q15 0 23.5 -11t6.5 -28l-6 -45q-3 -16 -14.5 -27.5t-26.5 -11.5h-205l-178 -1271q-1 -15 -14 -27t-27 -12h-74 q-14 0 -22.5 12t-5.5 27l178 1271h-369l-178 -1271q-1 -15 -14 -27t-27 -12h-74q-14 0 -22.5 12t-5.5 27zM373 819h368l41 287q8 66 33 131q-19 26 -67.5 48t-104.5 22q-85 0 -151 -61t-86 -195z" />
</font>
</defs>
</svg>
