<?xml  version="1.0" encoding="UTF-8"?>
<!DOCTYPE svg PUBLIC "-//W3C//DTD SVG 1.0//EN" "http://www.w3.org/TR/2001/REC-SVG-20010904/DTD/svg10.dtd" >
<svg xmlns="http://www.w3.org/2000/svg" >
<metadata>
<version>1.0</version>
<id><![CDATA[Soho W01 Bold]]></id>
<vendor>Monotype Imaging Inc.</vendor>
<credits>
<name>Fonts.com WebFonts</name>
<URL>http://webfonts.fonts.com</URL>
<role>Home of the Web fonts</role>
</credits>
<license>
<URL>http://webfonts.fonts.com/Legal</URL>
</license>
<copyright><![CDATA[Copyright (c) 2007 Monotype Imaging Inc. Soho is designed by Sebastian Lester. All rights reserved.]]></copyright>
<trademark><![CDATA[Soho is a trademark of Monotype Imaging, Inc and may be registered in certain jurisdictions.]]></trademark>
<licensee>
<name></name>
</licensee>
</metadata>
<defs >
<font horiz-adv-x="627" id="03ea6963-3801-4613-b513-acb4a59ea8e0">
<font-face font-family="" panose-1="2 4 7 3 5 5 6 2 2 4" ascent="781" descent="-219" units-per-em="1000" alphabetic="0">
</font-face>
<missing-glyph horiz-adv-x="0" />

<glyph unicode="&#xA;" />
<glyph unicode="&#xD;" horiz-adv-x="0" />
<glyph unicode=" " horiz-adv-x="202" />
<glyph unicode="!" horiz-adv-x="314" d="M67 0V166H246V0H67ZM237 224H77L60 780H254L237 224Z"  />
<glyph unicode="&quot;" horiz-adv-x="481" d="M392 508H270L308 771H461L392 508ZM212 771L143 508H20L59 771H212Z"  />
<glyph unicode="#" horiz-adv-x="771" d="M574 177L554 0H410L430 177H293L274 0H130L150 177H65V287H161L179 444H65V554H191L213 743H357L336 554H472L493 743H637L616 554H706V444H604L587 287H706V177H574ZM323 444L306 287H442L459 444H323Z"  />
<glyph unicode="$" horiz-adv-x="672" d="M615 208Q615 114 562 60T411 -9V-127H264V-14Q211 -12 162 -6T77 7V186H190L200 126Q226 125 252 125T310 124Q428 124 428 202Q428 231 410 248T343 289L233 341Q194 359 162 377T106 420T70 476T57 554Q57 642 109 690T264 752V862H411V757Q439 755 466 753T517 747T559 740T589 734V562H476L466 618Q440 620 414 621T359 622Q302 622 273 609T243 557Q243 543 246 533T259 514T285 495T327 474L431 428Q475 408 509 388T566 343T602 285T615 208Z"  />
<glyph unicode="%" horiz-adv-x="1155" d="M1106 205Q1106 100 1058 45T910 -11Q809 -11 761 44T713 205V241Q713 347 761 401T910 456Q1010 456 1058 402T1106 241V205ZM976 241Q976 278 972 301T958 337T937 354T909 359Q894 359 882 355T861 337T848 301T843 241V205Q843 169 847 146T861 110T882 92T909 87Q924 87 936 92T958 110T971 146T976 205V241ZM400 0H253L750 746H896L400 0ZM441 508Q441 458 431 418T397 350T336 306T245 291Q191 291 154 306T93 350T60 419T49 508V543Q49 592 59 631T93 699T153 743T245 759Q299 759 336 744T396 701T430 633T441 543V508ZM311 543Q311 579 308 602T296 638T276 657T245 662Q210 662 195 637T179 543V507Q179 472 182 449T194 413T214 394T245 389Q263 389 275 394T296 412T307 449T311 507V543Z"  />
<glyph unicode="&amp;" horiz-adv-x="818" d="M729 359Q729 290 715 233T669 130L769 39V0H596L555 35Q523 14 465 0T332 -15Q273 -15 222 -6T132 26T72 87T50 184V191Q50 225 57 252T80 302T124 346T190 386L181 396Q135 443 111 484T86 577V586Q86 680 152 720T347 760Q384 760 421 758T492 751T551 743T595 734V564H482L472 623Q443 625 416 625T358 625Q315 625 289 615T263 571V564Q263 549 266 537T277 514T298 491T329 463L570 229Q581 255 587 289T593 360L546 368V452H777V368L729 359ZM295 282Q257 263 243 242T229 190V183Q229 160 238 144T264 119T302 105T348 100Q383 100 414 107T464 123L295 282Z"  />
<glyph unicode="&apos;" horiz-adv-x="232" d="M143 508H20L59 771H212L143 508Z"  />
<glyph unicode="(" horiz-adv-x="401" d="M206 -201Q180 -167 154 -119T106 -12T70 118T56 267V275Q56 354 70 424T105 554T153 661T206 743H364Q301 644 265 531T228 275V267Q228 124 264 11T364 -201H206Z"  />
<glyph unicode=")" horiz-adv-x="401" d="M344 267Q344 188 331 118T296 -11T248 -119T196 -201H37Q100 -102 136 11T173 267V275Q173 418 137 531T37 743H196Q221 709 247 662T295 555T330 425T344 275V267H344Z"  />
<glyph unicode="*" horiz-adv-x="552" d="M436 557Q419 552 401 548T362 542Q378 529 390 516T413 489L451 440L351 367L313 415Q302 429 293 445T276 478Q258 442 238 416L201 367L101 440L139 489Q149 502 161 515T189 542Q147 547 116 557L55 576L93 694L154 676Q188 665 222 646Q218 665 217 682T215 717V778H338V717Q338 684 329 645Q346 655 363 662T398 675L459 694L497 575L436 557Z"  />
<glyph unicode="+" horiz-adv-x="679" d="M406 318V126H274V318H74V453H274V645H406V453H604V318H406Z"  />
<glyph unicode="&#x2c;" horiz-adv-x="351" d="M170 -95H29L124 166H305L170 -95Z"  />
<glyph unicode="-" horiz-adv-x="378" d="M59 233V357H319V233H59Z"  />
<glyph unicode="." horiz-adv-x="304" d="M65 0V166H240V0H65Z"  />
<glyph unicode="/" horiz-adv-x="497" d="M198 0H20L299 743H477L198 0Z"  />
<glyph unicode="0" horiz-adv-x="708" d="M658 328Q658 161 584 72T354 -17Q198 -17 124 72T50 328V415Q50 581 124 670T354 760Q510 760 584 671T658 415V328ZM470 415Q470 475 462 514T439 575T403 607T354 616Q327 616 306 607T269 576T246 514T238 415V328Q238 268 246 229T269 167T305 135T354 126Q381 126 402 135T439 166T462 228T470 328V415Z"  />
<glyph unicode="1" horiz-adv-x="606" d="M51 0V129L211 137V581L51 539V675L262 746H397V137L556 129V0H51Z"  />
<glyph unicode="2" horiz-adv-x="653" d="M54 0V92Q54 161 65 209T103 295T172 364T277 428Q324 452 351 468T392 499T410 526T414 558Q414 596 386 610T281 625Q263 625 237 624T184 621L175 560H63V728Q82 734 111 740T174 750T244 757T312 760Q465 760 534 714T604 568Q604 530 594 499T559 440T496 384T398 326Q345 299 314 280T265 242T243 202T237 150V141H469L478 198H590V0H54Z"  />
<glyph unicode="3" horiz-adv-x="654" d="M604 205Q604 84 531 34T307 -17Q271 -17 234 -14T163 -6T103 5T60 17V187H173L182 123Q233 120 288 120Q321 120 345 123T386 137T410 166T418 214V230Q418 250 414 266T399 293T365 310T307 316H105V442H308Q343 442 364 448T398 465T414 493T418 529V539Q418 564 412 580T390 606T350 619T288 623Q262 623 235 623T184 620L175 560H62V727Q75 732 101 737T160 748T232 756T307 760Q377 760 432 750T526 715T584 652T604 554V542Q604 493 584 450T515 380Q564 357 584 314T604 223V205H604Z"  />
<glyph unicode="4" horiz-adv-x="712" d="M570 167V88L617 83V0H336V83L383 88V167H42V298L411 743H570V298H669V167H570ZM392 542L191 298H392V542Z"  />
<glyph unicode="5" horiz-adv-x="643" d="M593 221Q593 155 573 110T513 37T419 -4T294 -17Q210 -17 144 -7T48 12V186H159L168 121Q213 118 256 118Q297 118 325 123T371 139T396 170T404 219V238Q404 265 398 283T375 312T331 327T259 332H55L90 743H570V557H458L450 606H240L227 461H297Q382 461 438 448T529 408T578 340T593 240V221H593Z"  />
<glyph unicode="6" horiz-adv-x="690" d="M640 230Q640 159 616 112T552 36T459 -5T349 -17Q195 -17 123 56T50 292V456Q50 527 62 583T109 679T202 739T356 760Q395 760 432 757T503 750T562 740T603 731V562H492L482 621Q458 622 431 623T378 624Q329 624 301 616T257 590T238 546T234 484V460Q247 463 264 465T300 470T335 473T367 474Q425 474 475 466T561 434T619 369T640 261V230ZM456 258Q456 289 449 308T429 339T395 354T347 358Q326 358 295 356T234 346V260Q234 216 241 188T264 143T300 120T350 113Q397 113 426 140T456 230V258Z"  />
<glyph unicode="7" horiz-adv-x="652" d="M285 0H87L428 606H176L168 553H56V743H612V592L285 0Z"  />
<glyph unicode="8" horiz-adv-x="716" d="M664 213Q664 136 640 91T574 21T477 -10T361 -17H355Q294 -17 239 -10T143 21T78 90T53 213V220Q53 279 72 317T134 383Q97 407 76 444T55 541V551Q55 617 78 657T141 721T237 752T355 760H361Q424 760 478 752T573 721T637 658T661 551V541Q661 481 640 444T582 383Q624 356 644 318T664 220V213ZM480 223Q480 277 464 301T400 325H316Q269 325 253 301T236 223V215Q236 181 244 160T268 128T306 112T355 108H361Q388 108 410 112T447 127T471 160T480 215V223ZM478 544Q478 597 447 615T361 634H355Q301 634 270 616T238 544V535Q238 491 253 467T316 443H400Q447 443 462 467T478 535V544Z"  />
<glyph unicode="9" horiz-adv-x="690" d="M640 290Q640 220 628 163T581 66T488 5T334 -17Q295 -17 257 -14T186 -7T127 3T86 12V182H197L207 122Q233 120 261 120T317 119Q364 119 391 128T433 154T452 198T456 259V283Q442 280 425 278T390 273T355 270T324 269Q265 269 215 277T129 309T71 374T50 482V513Q50 583 74 630T138 706T231 747T341 760Q418 760 474 743T567 689T622 595T640 457V290ZM456 483Q456 526 449 554T427 600T390 623T340 630Q293 630 264 603T234 513V485Q234 454 241 435T261 404T295 389T343 385Q364 385 395 387T456 397V483Z"  />
<glyph unicode=":" horiz-adv-x="316" d="M70 0V166H245V0H70ZM245 406H70V572H245V406Z"  />
<glyph unicode=";" horiz-adv-x="351" d="M153 -94H13L108 167H294L153 -94ZM108 406V572H284V406H108Z"  />
<glyph unicode="&lt;" horiz-adv-x="679" d="M384 119L104 386L384 652H575L297 386L575 119H384Z"  />
<glyph unicode="=" horiz-adv-x="679" d="M95 179V314H583V179H95ZM95 453V589H583V453H95Z"  />
<glyph unicode="&gt;" horiz-adv-x="679" d="M295 119H104L382 386L104 652H295L575 386L295 119Z"  />
<glyph unicode="?" horiz-adv-x="564" d="M49 760Q92 775 149 783T267 791Q384 791 444 752T504 624V617Q504 592 499 569T482 524T450 478T400 427Q366 393 346 369T314 326T300 289T296 250V225H145V250Q145 282 146 307T155 354T178 400T221 450Q243 476 258 496T282 531T295 560T299 587V593Q299 625 277 637T209 650Q195 650 183 650T157 649L148 593H49V760ZM308 165V0H133V165H308Z"  />
<glyph unicode="@" horiz-adv-x="886" d="M839 368Q839 300 820 241T755 138T635 69T452 43Q337 43 283 79T227 203Q227 218 228 239T231 277Q236 337 254 378T300 444T368 481T455 493Q507 493 553 486T637 470L604 152Q676 171 709 227T742 368Q742 481 674 535T475 590Q341 590 263 521T155 309Q149 278 145 245T141 173Q141 116 156 75T203 6T287 -34T409 -47Q437 -47 467 -46T523 -44T569 -41T598 -38V-98Q568 -104 518 -109T410 -115Q223 -115 135 -44T47 173Q47 215 51 252T62 322Q99 496 202 580T475 664Q560 664 628 645T742 589T814 497T839 368ZM496 391Q486 393 472 393T447 394Q429 394 415 390T390 373T372 337T360 276Q358 249 357 232T356 202Q356 164 376 150T452 136H471L496 391Z"  />
<glyph unicode="A" horiz-adv-x="813" d="M36 0V129L84 134L226 608L177 614V743H550L726 134L776 129V0H485V129L525 133L511 184H300L286 133L326 129V0H36ZM432 516Q424 543 419 573T409 630H402Q397 604 392 574T379 516L326 320H486L432 516Z"  />
<glyph unicode="B" horiz-adv-x="729" d="M682 219Q682 148 656 103T584 33T473 -1T330 -10Q267 -10 197 -8T44 0V130L91 135V607L44 613V743Q125 749 198 751T332 753Q414 753 478 744T587 712T654 648T678 543V534Q678 486 658 446T591 382Q640 359 661 316T682 229V219ZM501 231Q501 253 495 270T475 298T437 316T376 322H271V129Q291 128 307 128T345 128Q385 128 414 131T462 145T491 173T501 220V231ZM499 535Q499 562 490 578T461 602T413 613T347 616Q326 616 310 616T271 615V439H374Q412 439 436 444T475 461T494 489T499 527V535Z"  />
<glyph unicode="C" horiz-adv-x="632" d="M583 4Q569 0 545 -3T493 -10T435 -15T382 -17Q302 -17 240 -1T136 56T71 162T48 330V414Q48 514 70 581T135 687T240 743T382 760Q405 760 434 758T492 753T545 747T583 739V551H468L459 609Q445 609 430 609T400 610Q359 610 328 602T277 573T247 513T237 414V330Q237 269 247 231T277 170T328 140T401 132Q415 132 430 132T459 134L468 193H583V4H583Z"  />
<glyph unicode="D" horiz-adv-x="760" d="M710 336Q710 246 690 181T626 73T514 11T350 -10Q276 -10 196 -7T44 2V129L94 136V609L44 616V743Q116 748 194 750T350 753Q537 753 623 671T710 410V336ZM525 410Q525 469 516 507T486 568T432 599T352 608H276V135H352Q399 135 432 144T485 177T515 238T525 336V410Z"  />
<glyph unicode="E" horiz-adv-x="644" d="M44 0V129L90 134V609L44 614V743H596V558H483L474 604H277V447H575V314H277V139H474L483 187H596V0H44Z"  />
<glyph unicode="F" horiz-adv-x="639" d="M278 313V134L326 129V0H44V129L91 134V609L44 614V743H598V556H484L475 603H278V445H576V313H278Z"  />
<glyph unicode="G" horiz-adv-x="698" d="M643 7Q623 3 595 -1T532 -8T458 -14T376 -17Q310 -17 251 -3T146 49T75 154T48 329V415Q48 490 61 544T98 637T153 700T222 737T299 755T380 760Q422 760 462 757T538 750T600 740T641 732V551H527L517 607Q497 608 469 609T415 610Q371 610 338 604T281 577T245 518T233 415V329Q233 270 242 232T270 172T317 141T384 132Q407 132 429 132T469 134V286L390 294V403H643V7H643Z"  />
<glyph unicode="H" horiz-adv-x="837" d="M793 743V614L746 609V134L793 129V0H511V129L558 134V311H279V134L326 129V0H44V129L91 134V609L44 614V743H326V614L279 609V457H558V609L511 614V743H793Z"  />
<glyph unicode="I" horiz-adv-x="373" d="M45 0V129L92 134V609L45 614V743H327V614L280 609V134L327 129V0H45Z"  />
<glyph unicode="J" horiz-adv-x="370" d="M277 609V-20Q277 -124 230 -169T79 -214Q54 -214 25 -212T-21 -205V-91H33Q52 -91 63 -88T81 -77T88 -57T90 -28V609L43 614V743H324V614L277 609Z"  />
<glyph unicode="K" horiz-adv-x="763" d="M44 0V129L90 134V609L44 614V743H324V614L277 609V400L532 743H724V614L667 609L472 376L667 133L723 129V0H519L277 344V134L324 129V0H44Z"  />
<glyph unicode="L" horiz-adv-x="608" d="M44 0V129L90 134V609L44 614V743H324V614L277 609V144H445L455 203H569V0H44Z"  />
<glyph unicode="M" horiz-adv-x="930" d="M44 0V129L88 134V609L44 614V743H272L413 510Q426 489 438 466T462 419H464Q475 442 488 465T513 509L656 743H886V614L839 609V134L886 129V0H611V129L658 134V362Q658 394 659 427T663 493H661Q650 469 636 442T607 392L517 251H409L319 392Q305 415 291 442T267 493H265Q267 461 268 428T269 362V134L316 129V0H44Z"  />
<glyph unicode="N" horiz-adv-x="813" d="M769 743V614L722 609V0H528L310 380Q297 402 283 427T257 476H254Q257 447 258 415T260 352V134L307 129V0H44V129L90 134V609L44 614V743H280L500 370Q514 347 528 320T554 269H556Q554 299 553 335T551 400V609L504 614V743H769Z"  />
<glyph unicode="O" horiz-adv-x="743" d="M695 335Q695 237 672 170T606 62T504 2T372 -17Q300 -17 240 1T138 61T72 170T48 335V408Q48 506 71 573T138 681T240 741T372 760Q444 760 503 742T605 682T671 573T695 408V335ZM511 408Q511 465 502 504T475 567T431 601T372 611Q339 611 313 601T269 567T242 504T232 408V335Q232 276 241 237T269 175T313 142T372 132Q405 132 430 142T474 175T501 237T511 335V408Z"  />
<glyph unicode="P" horiz-adv-x="727" d="M44 0V130L91 134V609L44 614V743Q115 748 188 750T335 752Q408 752 471 743T582 708T656 635T684 509V500Q684 421 657 373T585 297T479 261T353 252Q333 252 314 252T271 253V134L318 129V0H44ZM503 509Q503 541 494 560T465 591T416 606T348 610Q328 610 309 610T271 609V398Q289 397 309 397T349 397Q388 397 416 401T464 417T493 449T503 500V509Z"  />
<glyph unicode="Q" horiz-adv-x="743" d="M695 332Q695 252 678 193T630 91T555 25T456 -9V-42Q456 -65 466 -71T513 -78H595V-182Q573 -189 531 -194T447 -200Q410 -200 380 -194T328 -170T295 -123T283 -46V-7Q229 3 186 27T112 93T65 194T48 332V410Q48 508 72 575T139 683T241 742T372 760Q442 760 501 742T604 683T671 575T695 410V332ZM511 410Q511 467 502 506T474 568T431 601T372 611Q339 611 313 601T269 568T242 506T232 410V332Q232 275 241 237T269 175T313 142T372 132Q405 132 430 141T474 174T501 236T511 332V410Z"  />
<glyph unicode="R" horiz-adv-x="757" d="M44 0V129L91 134V609L44 614V743Q110 747 184 749T338 752Q408 752 470 743T580 708T654 635T682 511V505Q682 423 651 375T564 300L666 134L720 129V0H541L389 264Q378 263 365 263T340 263H271V134L318 129V0H44ZM501 508Q501 539 492 558T464 589T414 605T343 609H271V397Q290 396 308 396T346 396Q429 396 465 419T501 502V508Z"  />
<glyph unicode="S" horiz-adv-x="648" d="M601 210Q601 97 527 40T323 -17Q284 -17 246 -15T173 -10T112 -2T66 7V183H179L189 123Q218 121 245 121T300 121Q360 121 387 139T415 200Q415 215 411 227T397 249T370 268T328 289L220 337Q181 355 149 374T95 419T60 476T47 553Q47 664 121 712T337 760Q374 760 410 758T477 751T535 743T577 734V564H464L453 621Q427 623 399 623T347 624Q289 624 260 610T231 558Q231 544 235 534T248 514T274 496T316 475L420 429Q465 409 499 389T555 344T589 286T601 210Z"  />
<glyph unicode="T" horiz-adv-x="697" d="M549 552L539 603H442V133L489 128V0H207V128L255 133V603H158L148 552H39V743H657V552H549Z"  />
<glyph unicode="U" horiz-adv-x="810" d="M766 743V614L719 609V301Q719 140 637 62T405 -17Q255 -17 173 61T91 301V609L44 614V743H323V614L276 609V306Q276 257 282 223T302 168T342 138T405 128Q443 128 468 137T508 168T529 223T535 306V609L488 614V743H766Z"  />
<glyph unicode="V" horiz-adv-x="804" d="M767 743V614L717 609L544 0H258L85 609L36 614V743H317V614L280 610L373 249Q381 216 388 180T400 113H402Q408 144 414 180T429 249L523 610L486 614V743H767Z"  />
<glyph unicode="W" horiz-adv-x="1045" d="M1010 743V614L961 609L857 0H631L544 325Q537 351 533 381T524 436H521Q516 412 512 382T501 325L415 0H187L83 609L34 614V743H315V614L268 609L309 345Q315 307 318 272T326 204H330Q338 236 341 269T354 334L425 586H621L692 332Q701 300 705 267T715 204H719Q722 236 726 271T736 345L777 609L730 614V743H1010Z"  />
<glyph unicode="X" horiz-adv-x="750" d="M517 0L363 227L223 0H36V129L93 134L257 385L106 608L51 614V743H240L390 523L531 743H710V614L653 608L494 369L652 135L714 129V0H517Z"  />
<glyph unicode="Y" horiz-adv-x="700" d="M614 608L441 277V130L488 124V0H209V124L259 130V276L85 608L36 614V743H211L305 549Q317 523 329 493T349 439H352Q360 463 372 493T396 549L490 743H664V614L614 608Z"  />
<glyph unicode="Z" horiz-adv-x="650" d="M47 0V145L377 600H174L165 549H56V743H594V597L264 143H484L495 197H603V0H47Z"  />
<glyph unicode="[" horiz-adv-x="439" d="M83 -201V743H390V610H256V-69H390V-201H83Z"  />
<glyph unicode="\" horiz-adv-x="513" d="M307 0L29 743H205L483 0H307Z"  />
<glyph unicode="]" horiz-adv-x="439" d="M48 -201V-69H182V610H48V743H357V-201H48Z"  />
<glyph unicode="^" horiz-adv-x="722" d="M478 428L361 675L244 428H80L237 745H485L642 428H478Z"  />
<glyph unicode="_" horiz-adv-x="614" d="M11 -140V-48H603V-140H11Z"  />
<glyph unicode="`" horiz-adv-x="488" d="M213 633L46 778H244L376 633H213Z"  />
<glyph unicode="a" horiz-adv-x="637" d="M392 0V37Q363 18 316 2T212 -14Q131 -14 88 26T45 149V172Q45 229 65 262T123 313T211 336T323 341H376V372Q376 398 372 414T357 439T326 451T271 455Q255 455 241 455T209 453L199 409H87V552Q99 556 121 562T173 573T236 582T307 586Q374 586 420 575T496 538T538 472T551 372V132L596 127V0H392ZM383 251H325Q295 251 274 249T238 239T218 217T211 178V155Q211 122 229 111T276 99Q310 99 339 108T383 125V251Z"  />
<glyph unicode="b" horiz-adv-x="648" d="M600 258Q600 183 582 132T527 48T437 1T312 -14Q282 -14 255 -14T198 -11T136 -7T62 1V649L16 654V781H235V567Q260 578 290 582T352 587Q480 587 540 525T600 326V258ZM426 327Q426 398 405 425T329 452Q313 452 285 449T234 435V125Q248 123 268 122T315 121Q345 121 366 127T400 149T420 191T426 258V327Z"  />
<glyph unicode="c" horiz-adv-x="541" d="M494 8Q469 1 421 -6T304 -14Q172 -14 111 53T49 255V318Q49 454 110 520T304 586Q373 586 424 578T494 564V404H386L377 448Q366 449 354 449T333 450Q306 450 286 445T251 426T230 385T223 318V255Q223 213 230 187T251 147T287 127T336 121Q362 121 399 123T494 129V8H494Z"  />
<glyph unicode="d" horiz-adv-x="674" d="M427 0V30Q397 11 357 -1T265 -14Q163 -14 106 50T49 249V318Q49 393 67 444T118 526T200 572T308 586Q339 586 364 584T414 578V669L363 673V780H588V132L634 127V0H427ZM415 444Q392 448 369 450T329 452Q302 452 283 447T250 428T230 387T223 318V249Q223 178 245 150T321 121Q371 121 415 140V444Z"  />
<glyph unicode="e" horiz-adv-x="637" d="M220 238V230Q220 203 223 182T240 147T280 125T353 118Q375 118 403 118T460 120T518 124T567 128V11Q533 3 476 -5T345 -14Q266 -14 210 1T117 48T64 131T47 257V309Q47 452 119 519T322 586Q402 586 454 562T538 498T581 406T594 297V238H220ZM424 342Q424 366 421 387T407 424T376 450T322 460Q289 460 270 451T239 425T225 387T221 342V334H424V342Z"  />
<glyph unicode="f" horiz-adv-x="472" d="M303 445V132L349 127V0H83V127L129 132V445L34 454V572H129V617Q129 705 168 750T302 795Q341 795 376 791T437 779V678Q413 680 394 680T357 681Q338 681 328 678T312 667T305 646T303 615V572H436V445H303Z"  />
<glyph unicode="g" horiz-adv-x="646" d="M597 -32Q597 -82 578 -117T523 -174T433 -206T311 -216Q243 -216 192 -207T105 -176T53 -120T35 -37Q35 -7 48 23T87 76Q64 92 53 114T42 161Q42 187 55 211T97 250Q50 295 50 387Q50 430 60 467T100 530T180 571T315 586H601V496L550 484Q558 473 568 449T579 387Q579 331 560 293T507 231T423 197T313 187Q281 187 251 190T198 201Q179 188 179 171Q179 154 189 150T226 146H312Q382 146 435 139T525 113T579 59T597 -32ZM430 -36Q430 -14 425 0T407 21T371 31T312 34H222Q211 23 204 7T197 -36Q197 -56 202 -70T219 -93T254 -106T312 -110Q380 -110 405 -92T430 -36ZM412 387Q412 408 408 424T394 451T364 467T313 473Q281 473 263 467T234 450T220 423T217 387Q217 366 220 350T234 323T264 306T313 300Q344 300 363 306T393 323T408 350T412 387Z"  />
<glyph unicode="h" horiz-adv-x="710" d="M449 0V360Q449 414 433 433T375 452Q342 452 311 444T260 426V132L306 127V0H40V127L86 132V648L40 653V780H260V547Q292 564 337 575T431 586Q490 586 527 570T586 523T616 452T624 362V132L670 127V0H449Z"  />
<glyph unicode="i" horiz-adv-x="346" d="M40 0V128L86 132V440L40 445V572H260V132L306 128V0H40ZM82 648V780H264V648H82Z"  />
<glyph unicode="j" horiz-adv-x="326" d="M263 -32Q263 -85 253 -120T221 -177T163 -208T79 -217Q48 -217 21 -215T-19 -209V-96H37Q70 -96 79 -83T89 -32V440L43 445V572H263V-32ZM85 648V780H266V648H85Z"  />
<glyph unicode="k" horiz-adv-x="653" d="M435 0L260 264V0H40V127L86 132V649L40 653V780H260V319L439 572H612V444L547 438L430 297L556 135L613 128V0H435Z"  />
<glyph unicode="l" horiz-adv-x="346" d="M40 0V127L86 132V648L40 653V780H260V132L306 127V0H40Z"  />
<glyph unicode="m" horiz-adv-x="1001" d="M740 0V372Q740 391 739 406T733 432T715 448T681 454Q661 454 635 447T585 427Q587 413 587 399T588 372V0H413V372Q413 391 412 406T406 432T389 448T358 454Q333 454 307 445T260 425V132L306 127V0H40V127L86 132V441L40 445V572H250V526Q285 555 329 570T422 586Q475 586 506 570T557 524Q605 558 650 572T736 586Q795 586 830 569T884 524T909 457T915 376V132L961 127V0H740Z"  />
<glyph unicode="n" horiz-adv-x="710" d="M449 0V362Q449 412 436 432T382 452Q357 452 326 444T260 421V132L306 127V0H40V127L86 132V440L40 445V572H250V525Q294 553 341 569T436 586Q500 586 537 569T594 521T619 449T624 362V132L670 127V0H449Z"  />
<glyph unicode="o" horiz-adv-x="646" d="M597 255Q597 113 525 50T322 -14Q257 -14 207 1T121 49T68 133T49 255V317Q49 388 67 439T121 522T206 570T322 586Q453 586 525 523T597 317V255ZM423 317Q423 392 400 421T322 451Q269 451 246 422T222 317V255Q222 180 245 151T322 121Q376 121 399 150T423 255V317Z"  />
<glyph unicode="p" horiz-adv-x="673" d="M40 -202V-75L86 -70V440L40 445V572H247V536Q287 563 330 574T416 586Q464 586 502 572T568 527T610 447T625 325V254Q625 180 607 129T554 46T470 0T360 -14Q335 -14 307 -12T260 -5V-70L306 -75V-202H40ZM451 325Q451 361 446 385T429 424T401 444T358 450Q336 450 313 446T258 427V129Q281 125 302 123T344 120Q370 120 390 125T423 145T444 186T451 254V325Z"  />
<glyph unicode="q" horiz-adv-x="654" d="M366 -202V-75L412 -70V7Q381 -5 350 -9T288 -14Q164 -14 106 48T47 248V316Q47 395 65 447T121 530T213 573T340 586Q369 586 395 586T450 583T511 578T585 570V-70L630 -75V-202H366ZM412 447Q391 449 369 449T335 450Q305 450 284 446T248 428T228 387T221 315V248Q221 212 225 188T239 149T267 128T310 121Q327 121 353 124T412 139V447Z"  />
<glyph unicode="r" horiz-adv-x="471" d="M436 437Q388 437 341 430T260 412V132L305 127V0H40V127L86 132V440L40 445V572H248V524Q290 563 339 574T436 586V437H436Z"  />
<glyph unicode="s" horiz-adv-x="552" d="M508 162Q508 73 447 30T257 -14Q227 -14 196 -12T137 -6T87 1T53 8V154H167L176 107Q194 106 212 106T248 105Q300 105 318 117T336 154Q336 166 333 174T320 190T294 205T250 224L208 241Q168 256 137 273T85 311T54 360T43 423Q43 471 59 502T106 552T180 578T278 586Q309 586 341 584T401 579T453 571T490 563V425H377L367 466Q350 467 330 467T296 468Q252 468 233 461T214 428Q214 417 217 409T228 395T251 382T289 366L339 347Q386 329 418 311T470 272T499 224T508 162Z"  />
<glyph unicode="t" horiz-adv-x="485" d="M440 1Q434 -1 422 -3T393 -8T356 -12T313 -14Q222 -14 181 25T139 161V445L40 454V572H139V710H313V572H441V445H314V163Q314 146 315 135T321 118T335 110T361 107Q381 107 397 108T440 111V1H440Z"  />
<glyph unicode="u" horiz-adv-x="710" d="M460 0V46Q415 20 366 3T260 -14Q201 -14 167 5T114 55T91 126T86 210V440L40 446V572H260V210Q260 160 273 140T328 120Q353 120 384 128T449 151V440L404 446V572H624V132L670 126V0H460Z"  />
<glyph unicode="v" horiz-adv-x="684" d="M597 437L464 0H218L85 437L37 444V572H229L308 263Q318 223 326 183T341 108H343Q351 143 359 183T377 263L455 572H645V444L597 437Z"  />
<glyph unicode="w" horiz-adv-x="995" d="M907 438L812 0H599L520 240Q509 272 504 298T497 350H494Q492 324 487 298T471 240L391 0H179L84 439L36 444V572H235L285 293Q292 252 296 221T305 160H310Q317 190 322 222T341 293L407 486H587L652 293Q665 255 670 223T684 160H688Q693 189 697 221T709 294L759 572H955V444L907 438Z"  />
<glyph unicode="x" horiz-adv-x="639" d="M426 0L303 165L192 0H40V128L85 134L201 302L100 438L45 444V572H215L331 415L435 572H591V444L536 438L427 286L541 133L599 128V0H426Z"  />
<glyph unicode="y" horiz-adv-x="697" d="M604 439L459 0Q442 -52 422 -92T375 -159T310 -201T221 -215Q175 -215 133 -212T61 -201V-88Q98 -89 120 -89T167 -90Q199 -90 214 -75T244 -23L255 7L93 439L37 445V572H234L317 283Q328 246 337 206T353 131H355Q360 166 368 204T386 281L462 572H660V445L604 439Z"  />
<glyph unicode="z" horiz-adv-x="553" d="M44 0V130L313 444H161L152 404H53V572H508V440L241 127H401L411 173H509V0H44Z"  />
<glyph unicode="{" horiz-adv-x="465" d="M351 -202Q279 -202 232 -193T156 -163T117 -105T106 -12V117Q106 141 103 156T92 183T74 204T46 222V319Q62 328 73 337T92 357T102 385T106 424V553Q106 609 117 645T156 704T231 734T351 743H414V610H354Q330 610 315 609T293 601T283 584T280 553V424Q280 392 276 369T262 329T237 297T200 270Q221 257 236 244T261 213T275 172T280 117V-12Q280 -31 282 -42T292 -60T315 -68T354 -70H415V-202H351Z"  />
<glyph unicode="|" horiz-adv-x="338" d="M82 -202V743H256V-202H82Z"  />
<glyph unicode="}" horiz-adv-x="465" d="M418 222Q402 213 391 204T373 184T363 157T359 117V-12Q359 -68 348 -104T309 -162T234 -193T114 -202H50V-70H111Q135 -70 149 -68T171 -60T181 -43T184 -12V117Q184 148 188 171T202 212T227 243T264 270Q243 283 228 297T204 328T190 369T185 424V553Q185 572 183 583T173 601T150 608T111 610H51V743H114Q186 743 233 735T309 704T348 646T359 553V424Q359 401 362 385T373 358T391 337T418 319V222H418Z"  />
<glyph unicode="~" horiz-adv-x="698" d="M613 498Q613 409 579 365T458 320Q443 320 416 324T357 349L295 388Q278 399 267 404T240 409Q218 409 211 396T204 347V326H84V347Q84 397 94 431T122 487T168 517T229 527Q257 527 283 520T338 495L400 456Q417 445 429 441T458 437Q481 437 487 451T494 498V520H613V498H613Z"  />
<glyph unicode="&#xA0;" horiz-adv-x="202" />
<glyph unicode="&#xA1;" horiz-adv-x="314" d="M60 -204L76 351H237L253 -204H60ZM246 409H66V576H246V409Z"  />
<glyph unicode="&#xA2;" horiz-adv-x="558" d="M495 8Q480 3 447 -2T371 -11V-121H228V-5Q137 13 94 79T50 257V315Q50 426 93 492T228 577V691H371V583Q415 579 448 573T495 564V407H388L380 449Q370 450 359 450T336 450Q307 450 286 445T251 425T230 384T223 315V257Q223 215 230 189T251 147T286 127T336 122Q400 122 495 128V8H495Z"  />
<glyph unicode="&#xA3;" horiz-adv-x="661" d="M82 0V112Q108 136 118 164T129 223V320H53V444H129V497Q129 566 142 616T187 698T268 746T390 761Q453 761 509 755T608 739V559H494L484 617Q471 618 454 618T419 619Q383 619 362 614T329 594T314 557T310 498V444H519V320H310V223Q310 174 284 136H608V0H82Z"  />
<glyph unicode="&#xA4;" horiz-adv-x="667" d="M530 107L451 184Q395 153 335 153Q271 153 218 184L136 106L60 181L141 260Q109 312 109 374Q109 435 141 486L60 566L136 640L218 561Q245 578 275 585T335 593Q399 593 452 562L531 638L607 563L528 486Q544 460 553 431T562 373Q562 313 528 259L607 182L530 107ZM457 374Q457 399 447 420T421 458T382 483T335 492Q310 492 288 483T249 457T222 420T212 374Q212 348 222 327T249 289T288 263T335 254Q359 254 381 263T420 289T447 327T457 374Z"  />
<glyph unicode="&#xA5;" horiz-adv-x="751" d="M464 204V103L512 98V0H233V98L283 103V204H46V305H268L220 392H46V494H168L98 623L39 629V743H235L328 549Q340 523 351 493T373 439H375Q385 463 396 493T419 549L513 743H712V629L649 622L579 494H701V392H527L478 305H701V204H464Z"  />
<glyph unicode="&#xA6;" horiz-adv-x="338" d="M82 -201V188H256V-201H82ZM82 353V742H256V353H82Z"  />
<glyph unicode="&#xA7;" horiz-adv-x="687" d="M620 0Q620 -112 548 -165T335 -218Q303 -218 269 -216T202 -211T139 -204T84 -194V-18H198L206 -76Q229 -78 259 -78T321 -79Q385 -79 407 -60T430 -5Q430 11 427 24T414 50T384 75T329 99L217 139Q65 194 65 338Q65 367 72 397T97 453Q80 475 73 504T66 566Q66 663 136 710T351 758Q390 758 427 755T498 748T556 740T594 732V564H479L470 618Q419 621 357 621Q295 621 273 606T250 560Q250 546 252 534T263 510T288 489T331 468L442 427Q494 408 528 387T584 340T613 284T622 215Q622 189 615 162T589 108Q605 85 612 57T620 0ZM477 200Q477 221 475 237T464 265T438 288T392 308L268 351Q241 360 223 374T199 395V364Q199 340 201 324T211 296T235 275T279 256L403 211Q425 203 442 194T477 175V200Z"  />
<glyph unicode="&#xA8;" horiz-adv-x="511" d="M313 645V773H453V645H313ZM199 645H59V773H199V645Z"  />
<glyph unicode="&#xA9;" horiz-adv-x="861" d="M801 374Q801 281 773 210T696 90T578 16T429 -9Q348 -9 280 16T162 89T85 209T57 374Q57 467 84 538T161 658T279 731T429 756Q510 756 578 731T695 658T773 539T801 374ZM711 374Q711 446 691 502T633 596T544 655T429 675Q366 675 315 655T226 597T168 502T147 374Q147 302 167 246T225 152T314 93T429 73Q492 73 543 93T632 151T690 246T711 374ZM554 171Q546 168 533 166T504 161T472 158T440 157Q340 157 293 207T245 349V400Q245 491 292 540T440 590Q455 590 471 589T504 586T533 582T554 577V465H488L480 496Q472 497 465 497T449 497Q402 497 384 476T365 400V349Q365 294 383 272T449 250Q457 250 464 250T481 251L488 282H554V171Z"  />
<glyph unicode="&#xAA;" horiz-adv-x="460" d="M277 412V435Q258 424 227 413T158 402Q107 402 78 428T48 506V520Q48 557 62 578T102 610T161 624T233 627H265V643Q265 658 263 668T254 683T234 690T199 692Q189 692 180 692T160 690L155 665H77V759Q97 766 137 774T226 782Q313 782 351 751T389 643V502L416 500V412H277ZM271 565H234Q197 565 181 559T165 525V512Q165 492 176 487T205 482Q225 482 243 487T271 497V565Z"  />
<glyph unicode="&#xAB;" horiz-adv-x="608" d="M410 63L292 285L410 507H571L457 285L571 63H410ZM317 63H156L39 285L156 507H317L203 285L317 63Z"  />
<glyph unicode="&#xAC;" horiz-adv-x="679" d="M448 179V453H95V589H584V179H448Z"  />
<glyph unicode="&#xAD;" horiz-adv-x="378" d="M59 233V357H319V233H59Z"  />
<glyph unicode="&#xAE;" horiz-adv-x="670" d="M611 474Q611 407 591 353T535 261T448 202T334 181Q271 181 220 201T133 260T77 353T57 474Q57 541 77 595T133 688T220 746T334 767Q397 767 448 747T535 688T591 596T611 474ZM536 474Q536 579 482 638T334 698Q240 698 186 639T131 474Q131 369 185 309T334 249Q428 249 482 308T536 474ZM392 330L327 435H315H298V330H201V381L221 383V577L201 580V632Q233 634 260 634T318 635Q348 635 373 631T418 617T448 587T459 537V533Q459 499 444 479T404 450L447 386L478 381V330H392ZM381 537Q381 560 366 567T321 574H298V492H322Q352 492 366 500T381 534V537Z"  />
<glyph unicode="&#xAF;" horiz-adv-x="505" d="M48 653V754H457V653H48Z"  />
<glyph unicode="&#xB0;" horiz-adv-x="434" d="M388 597Q388 563 375 533T338 481T284 446T217 433Q182 433 151 446T96 481T60 533T46 597Q46 631 59 661T96 713T150 747T217 760Q253 760 284 748T338 713T374 661T388 597ZM299 597Q299 631 275 653T217 675Q183 675 159 653T135 597Q135 562 159 541T217 519Q251 519 275 540T299 597Z"  />
<glyph unicode="&#xB1;" horiz-adv-x="679" d="M79 0V109H599V0H79ZM406 369V185H274V369H77V504H274V687H406V504H601V369H406Z"  />
<glyph unicode="&#xB2;" horiz-adv-x="461" d="M51 301V357Q51 399 59 429T84 482T127 523T192 561Q221 574 237 583T262 601T273 616T276 634Q276 654 260 662T198 670Q187 670 171 670T138 668L133 632H58V739Q71 743 91 746T133 752T177 756T219 758Q318 758 362 730T406 638Q406 614 399 595T377 560T336 527T275 495Q243 481 224 471T194 450T180 428T177 399V394H317L322 427H398V301H51Z"  />
<glyph unicode="&#xB3;" horiz-adv-x="458" d="M402 426Q402 352 356 321T213 290Q190 290 166 292T120 297T81 304T52 312V419H128L133 382Q149 381 165 381T199 380Q238 380 256 389T275 432V440Q275 451 273 460T263 475T243 484T208 487H82V569H208Q251 569 263 582T275 617V622Q275 650 259 659T198 669Q182 669 166 669T134 667L129 632H54V737Q63 740 80 744T119 751T165 756T213 758Q302 758 352 731T402 633V627Q402 598 390 571T348 529Q379 515 390 489T402 435V426H402Z"  />
<glyph unicode="&#xB4;" horiz-adv-x="488" d="M268 633H105L237 778H434L268 633Z"  />
<glyph unicode="&#xB5;" horiz-adv-x="713" d="M461 0V46Q429 26 390 11T305 -5Q286 -5 261 0V-70L306 -75V-202H42V-75L87 -70V440L42 446V572H262V210Q262 160 275 140T330 120Q354 120 385 128T451 151V440L406 446V572H625V132L671 126V0H461Z"  />
<glyph unicode="&#xB6;" horiz-adv-x="755" d="M586 -196V637H523V-196H366V-65L416 -59V243H367Q302 243 245 253T146 292T80 367T55 489V499Q55 574 79 621T146 696T247 733T372 743H692V-196H586Z"  />
<glyph unicode="&#xB7;" horiz-adv-x="304" d="M70 285V451H234V285H70Z"  />
<glyph unicode="&#xB8;" horiz-adv-x="456" d="M217 -202H58L163 -62H349L217 -202Z"  />
<glyph unicode="&#xB9;" horiz-adv-x="403" d="M60 301V387L140 391V632L59 607V705L177 749H270V391L351 387V301H60Z"  />
<glyph unicode="&#xBA;" horiz-adv-x="465" d="M417 576Q417 483 369 443T232 402Q146 402 97 442T48 576V607Q48 701 96 741T232 782Q320 782 368 742T417 607V576ZM294 607Q294 653 280 670T232 688Q200 688 185 671T170 607V576Q170 530 184 513T232 496Q265 496 279 513T294 576V607Z"  />
<glyph unicode="&#xBB;" horiz-adv-x="608" d="M452 63H291L405 285L291 507H452L570 285L452 63ZM316 285L199 63H38L152 285L38 507H199L316 285Z"  />
<glyph unicode="&#xBC;" horiz-adv-x="1004" d="M895 97V56L924 53V0H738V53L767 56V97H554V180L790 446H895V182H956V97H895ZM774 315L655 182H774V315ZM348 0H200L697 746H844L348 0ZM55 301V387L136 391V632L55 607V705L173 749H265V391L346 387V301H55Z"  />
<glyph unicode="&#xBD;" horiz-adv-x="1096" d="M686 0V55Q686 97 693 127T717 181T761 222T826 259Q855 273 872 282T897 300T908 315T911 333Q911 352 895 360T833 368Q822 368 806 368T773 366L768 330H693V437Q706 441 726 444T768 450T812 454T854 456Q953 456 997 428T1041 337Q1041 292 1012 259T910 194Q878 179 859 169T829 148T815 126T812 97V93H952L957 125H1032V0H686ZM348 0H200L697 746H844L348 0ZM55 301V387L136 391V632L55 607V705L173 749H265V391L346 387V301H55Z"  />
<glyph unicode="&#xBE;" horiz-adv-x="1063" d="M950 97V56L979 53V0H793V53L822 56V97H609V180L845 446H950V182H1011V97H950ZM829 315L710 182H829V315ZM382 0H234L731 746H879L382 0ZM400 426Q400 352 354 321T211 290Q187 290 163 292T118 297T78 304T50 312V419H125L130 382Q147 381 163 381T196 380Q236 380 254 389T273 432V440Q273 462 261 474T205 487H79V569H206Q249 569 261 582T273 617V622Q273 650 257 659T196 669Q180 669 164 669T131 667L126 632H51V737Q60 740 77 744T116 751T162 756T211 758Q300 758 350 731T400 633V627Q400 598 388 571T345 529Q376 515 388 489T400 435V426Z"  />
<glyph unicode="&#xBF;" horiz-adv-x="564" d="M519 -183Q476 -198 419 -206T301 -214Q184 -214 124 -175T64 -47V-40Q64 -15 69 8T86 53T118 99T168 150Q202 184 222 208T254 251T268 288T272 327V352H423V327Q423 295 421 270T412 223T389 177T347 127Q324 101 309 81T285 46T273 17T269 -10V-16Q269 -48 291 -60T359 -73Q373 -73 385 -73T411 -72L420 -16H519V-183ZM260 412V577H435V412H260Z"  />
<glyph unicode="&#xC0;" horiz-adv-x="813" d="M36 0V129L84 134L226 608L177 614V743H550L726 134L776 129V0H485V129L525 133L511 184H300L286 133L326 129V0H36ZM432 516Q424 543 419 573T409 630H402Q397 604 392 574T379 516L326 320H486L432 516ZM354 791L187 936H385L517 791H354Z"  />
<glyph unicode="&#xC1;" horiz-adv-x="813" d="M36 0V129L84 134L226 608L177 614V743H550L726 134L776 129V0H485V129L525 133L511 184H300L286 133L326 129V0H36ZM432 516Q424 543 419 573T409 630H402Q397 604 392 574T379 516L326 320H486L432 516ZM444 791H281L413 936H610L444 791Z"  />
<glyph unicode="&#xC2;" horiz-adv-x="813" d="M36 0V129L84 134L226 608L177 614V743H550L726 134L776 129V0H485V129L525 133L511 184H300L286 133L326 129V0H36ZM432 516Q424 543 419 573T409 630H402Q397 604 392 574T379 516L326 320H486L432 516ZM493 791L406 871L320 791H168L302 936H511L645 791H493Z"  />
<glyph unicode="&#xC3;" horiz-adv-x="813" d="M36 0V129L84 134L226 608L177 614V743H550L726 134L776 129V0H485V129L525 133L511 184H300L286 133L326 129V0H36ZM432 516Q424 543 419 573T409 630H402Q397 604 392 574T379 516L326 320H486L432 516ZM631 927Q631 889 622 862T598 819T560 795T512 787Q489 787 463 793T405 816L360 842Q343 852 331 857T306 862Q288 862 282 851T276 815V792H177V815Q177 854 186 880T211 923T250 947T300 955Q325 955 346 949T397 926L441 901Q457 892 473 887T503 881Q521 881 527 892T533 927V950H631V927H631Z"  />
<glyph unicode="&#xC4;" horiz-adv-x="813" d="M36 0V129L84 134L226 608L177 614V743H550L726 134L776 129V0H485V129L525 133L511 184H300L286 133L326 129V0H36ZM432 516Q424 543 419 573T409 630H402Q397 604 392 574T379 516L326 320H486L432 516ZM463 796V924H603V796H463ZM349 796H209V924H349V796Z"  />
<glyph unicode="&#xC5;" horiz-adv-x="813" d="M36 0V129L84 134L226 608L177 614V743H550L726 134L776 129V0H485V129L525 133L511 184H300L286 133L326 129V0H36ZM432 516Q424 543 419 573T409 630H402Q397 604 392 574T379 516L326 320H486L432 516ZM548 886Q548 826 508 795T407 764Q376 764 350 772T305 795T274 833T263 886Q263 916 274 939T304 977T350 1001T407 1009Q468 1009 508 978T548 886ZM462 886Q462 912 446 923T407 934Q382 934 367 923T351 886Q351 862 366 851T407 839Q430 839 446 850T462 886Z"  />
<glyph unicode="&#xC6;" horiz-adv-x="1056" d="M495 0V184H303L250 0H35V129L87 135L228 606L180 610V743H1001V558H888L879 604H682V447H980V314H682V139H879L888 187H1001V0H495ZM495 628H407Q401 602 395 574T382 520L328 319H495V628Z"  />
<glyph unicode="&#xC7;" horiz-adv-x="632" d="M583 4Q569 0 545 -3T493 -10T435 -15T382 -17Q302 -17 240 -1T136 56T71 162T48 330V414Q48 514 70 581T135 687T240 743T382 760Q405 760 434 758T492 753T545 747T583 739V551H468L459 609Q445 609 430 609T400 610Q359 610 328 602T277 573T247 513T237 414V330Q237 269 247 231T277 170T328 140T401 132Q415 132 430 132T459 134L468 193H583V4ZM328 -202H169L274 -62H460L328 -202Z"  />
<glyph unicode="&#xC8;" horiz-adv-x="644" d="M44 0V129L90 134V609L44 614V743H596V558H483L474 604H277V447H575V314H277V139H474L483 187H596V0H44ZM291 792L124 937H322L454 792H291Z"  />
<glyph unicode="&#xC9;" horiz-adv-x="644" d="M44 0V129L90 134V609L44 614V743H596V558H483L474 604H277V447H575V314H277V139H474L483 187H596V0H44ZM403 792H240L372 937H569L403 792Z"  />
<glyph unicode="&#xCA;" horiz-adv-x="644" d="M44 0V129L90 134V609L44 614V743H596V558H483L474 604H277V447H575V314H277V139H474L483 187H596V0H44ZM425 792L338 872L252 792H100L234 937H443L577 792H425Z"  />
<glyph unicode="&#xCB;" horiz-adv-x="644" d="M44 0V129L90 134V609L44 614V743H596V558H483L474 604H277V447H575V314H277V139H474L483 187H596V0H44ZM401 797V925H541V797H401ZM287 797H147V925H287V797Z"  />
<glyph unicode="&#xCC;" horiz-adv-x="373" d="M45 0V129L92 134V609L45 614V743H327V614L280 609V134L327 129V0H45ZM137 792L-30 937H168L300 792H137Z"  />
<glyph unicode="&#xCD;" horiz-adv-x="373" d="M45 0V129L92 134V609L45 614V743H327V614L280 609V134L327 129V0H45ZM237 792H74L206 937H403L237 792Z"  />
<glyph unicode="&#xCE;" horiz-adv-x="373" d="M45 0V129L92 134V609L45 614V743H327V614L280 609V134L327 129V0H45ZM273 792L186 872L100 792H-52L82 937H291L425 792H273Z"  />
<glyph unicode="&#xCF;" horiz-adv-x="373" d="M45 0V129L92 134V609L45 614V743H327V614L280 609V134L327 129V0H45ZM245 797V925H385V797H245ZM131 797H-9V925H131V797Z"  />
<glyph unicode="&#xD0;" horiz-adv-x="760" d="M708 336Q708 246 688 181T624 73T512 11T348 -10Q273 -10 194 -7T42 2V131L92 139V316H42V446H92V606L42 613V743Q115 748 194 750T348 753Q535 753 621 671T708 410V336ZM523 410Q523 469 514 507T484 568T430 599T350 608H274V446H384V316H274V135H350Q397 135 430 144T483 177T513 238T523 336V410Z"  />
<glyph unicode="&#xD1;" horiz-adv-x="813" d="M769 743V614L722 609V0H528L310 380Q297 402 283 427T257 476H254Q257 447 258 415T260 352V134L307 129V0H44V129L90 134V609L44 614V743H280L500 370Q514 347 528 320T554 269H556Q554 299 553 335T551 400V609L504 614V743H769ZM638 929Q638 891 629 864T605 821T567 797T519 789Q496 789 470 795T412 818L367 844Q350 854 338 859T313 864Q295 864 289 853T283 817V794H184V817Q184 856 193 882T218 925T257 949T307 957Q332 957 353 951T404 928L448 903Q464 894 480 889T510 883Q528 883 534 894T540 929V952H638V929H638Z"  />
<glyph unicode="&#xD2;" horiz-adv-x="743" d="M695 335Q695 237 672 170T606 62T504 2T372 -17Q300 -17 240 1T138 61T72 170T48 335V408Q48 506 71 573T138 681T240 741T372 760Q444 760 503 742T605 682T671 573T695 408V335ZM511 408Q511 465 502 504T475 567T431 601T372 611Q339 611 313 601T269 567T242 504T232 408V335Q232 276 241 237T269 175T313 142T372 132Q405 132 430 142T474 175T501 237T511 335V408ZM325 792L158 937H356L488 792H325Z"  />
<glyph unicode="&#xD3;" horiz-adv-x="743" d="M695 335Q695 237 672 170T606 62T504 2T372 -17Q300 -17 240 1T138 61T72 170T48 335V408Q48 506 71 573T138 681T240 741T372 760Q444 760 503 742T605 682T671 573T695 408V335ZM511 408Q511 465 502 504T475 567T431 601T372 611Q339 611 313 601T269 567T242 504T232 408V335Q232 276 241 237T269 175T313 142T372 132Q405 132 430 142T474 175T501 237T511 335V408ZM422 792H259L391 937H588L422 792Z"  />
<glyph unicode="&#xD4;" horiz-adv-x="743" d="M695 335Q695 237 672 170T606 62T504 2T372 -17Q300 -17 240 1T138 61T72 170T48 335V408Q48 506 71 573T138 681T240 741T372 760Q444 760 503 742T605 682T671 573T695 408V335ZM511 408Q511 465 502 504T475 567T431 601T372 611Q339 611 313 601T269 567T242 504T232 408V335Q232 276 241 237T269 175T313 142T372 132Q405 132 430 142T474 175T501 237T511 335V408ZM457 792L370 872L284 792H132L266 937H475L609 792H457Z"  />
<glyph unicode="&#xD5;" horiz-adv-x="743" d="M695 335Q695 237 672 170T606 62T504 2T372 -17Q300 -17 240 1T138 61T72 170T48 335V408Q48 506 71 573T138 681T240 741T372 760Q444 760 503 742T605 682T671 573T695 408V335ZM511 408Q511 465 502 504T475 567T431 601T372 611Q339 611 313 601T269 567T242 504T232 408V335Q232 276 241 237T269 175T313 142T372 132Q405 132 430 142T474 175T501 237T511 335V408ZM597 929Q597 891 588 864T564 821T526 797T478 789Q455 789 429 795T371 818L326 844Q309 854 297 859T272 864Q254 864 248 853T242 817V794H143V817Q143 856 152 882T177 925T216 949T266 957Q291 957 312 951T363 928L407 903Q423 894 439 889T469 883Q487 883 493 894T499 929V952H597V929H597Z"  />
<glyph unicode="&#xD6;" horiz-adv-x="743" d="M695 335Q695 237 672 170T606 62T504 2T372 -17Q300 -17 240 1T138 61T72 170T48 335V408Q48 506 71 573T138 681T240 741T372 760Q444 760 503 742T605 682T671 573T695 408V335ZM511 408Q511 465 502 504T475 567T431 601T372 611Q339 611 313 601T269 567T242 504T232 408V335Q232 276 241 237T269 175T313 142T372 132Q405 132 430 142T474 175T501 237T511 335V408ZM429 797V925H569V797H429ZM315 797H175V925H315V797Z"  />
<glyph unicode="&#xD7;" horiz-adv-x="679" d="M487 152L339 292L192 150L102 242L250 384L102 526L191 618L339 476L487 617L577 526L429 384L576 243L487 152Z"  />
<glyph unicode="&#xD8;" horiz-adv-x="743" d="M694 336Q694 239 670 172T603 63T501 3T370 -16Q316 -16 268 -6T181 28L148 -16H27L109 97Q79 139 63 197T47 336V407Q47 504 71 571T138 681T240 741T370 760Q424 760 472 749T559 714L594 759H715L631 645Q661 603 677 545T694 407V336ZM509 407Q509 466 500 505T473 567T429 601T370 611Q337 611 311 601T268 568T241 505T231 407V336Q231 277 240 238T268 176T311 142T370 132Q403 132 429 142T472 175T499 238T509 336V407Z"  />
<glyph unicode="&#xD9;" horiz-adv-x="810" d="M766 743V614L719 609V301Q719 140 637 62T405 -17Q255 -17 173 61T91 301V609L44 614V743H323V614L276 609V306Q276 257 282 223T302 168T342 138T405 128Q443 128 468 137T508 168T529 223T535 306V609L488 614V743H766ZM355 792L188 937H386L518 792H355Z"  />
<glyph unicode="&#xDA;" horiz-adv-x="810" d="M766 743V614L719 609V301Q719 140 637 62T405 -17Q255 -17 173 61T91 301V609L44 614V743H323V614L276 609V306Q276 257 282 223T302 168T342 138T405 128Q443 128 468 137T508 168T529 223T535 306V609L488 614V743H766ZM470 792H307L439 937H636L470 792Z"  />
<glyph unicode="&#xDB;" horiz-adv-x="810" d="M766 743V614L719 609V301Q719 140 637 62T405 -17Q255 -17 173 61T91 301V609L44 614V743H323V614L276 609V306Q276 257 282 223T302 168T342 138T405 128Q443 128 468 137T508 168T529 223T535 306V609L488 614V743H766ZM491 792L404 872L318 792H166L300 937H509L643 792H491Z"  />
<glyph unicode="&#xDC;" horiz-adv-x="810" d="M766 743V614L719 609V301Q719 140 637 62T405 -17Q255 -17 173 61T91 301V609L44 614V743H323V614L276 609V306Q276 257 282 223T302 168T342 138T405 128Q443 128 468 137T508 168T529 223T535 306V609L488 614V743H766ZM462 797V925H602V797H462ZM348 797H208V925H348V797Z"  />
<glyph unicode="&#xDD;" horiz-adv-x="700" d="M614 608L441 277V130L488 124V0H209V124L259 130V276L85 608L36 614V743H211L305 549Q317 523 329 493T349 439H352Q360 463 372 493T396 549L490 743H664V614L614 608ZM407 792H244L376 937H573L407 792Z"  />
<glyph unicode="&#xDE;" horiz-adv-x="727" d="M684 412Q684 335 657 288T584 214T479 178T353 168H271V0H44V129L91 134V644L44 649V778H271V667Q291 668 311 668T350 668Q418 668 478 659T585 624T657 550T684 425V412ZM503 426Q503 457 494 476T465 506T417 521T348 525Q328 525 309 525T271 524V313Q289 312 309 312T349 312Q388 312 417 316T465 332T493 363T503 414V426Z"  />
<glyph unicode="&#xDF;" horiz-adv-x="712" d="M665 220Q665 168 651 126T608 53T535 6T429 -11Q397 -11 375 -9T328 -4V124H371Q438 124 466 148T495 227V243Q495 291 466 316T368 342H328V456H368Q433 456 459 480T485 552V561Q485 581 480 597T463 625T429 643T374 650Q342 650 320 643T283 620T263 576T257 510V0H38V129L83 134V510Q83 575 98 626T147 713T237 768T374 787Q456 787 510 769T595 719T639 649T652 569V559Q652 538 647 516T632 474T603 435T560 404Q617 377 641 332T665 237V220H665Z"  />
<glyph unicode="&#xE0;" horiz-adv-x="637" d="M392 0V37Q363 18 316 2T212 -14Q131 -14 88 26T45 149V172Q45 229 65 262T123 313T211 336T323 341H376V372Q376 398 372 414T357 439T326 451T271 455Q255 455 241 455T209 453L199 409H87V552Q99 556 121 562T173 573T236 582T307 586Q374 586 420 575T496 538T538 472T551 372V132L596 127V0H392ZM383 251H325Q295 251 274 249T238 239T218 217T211 178V155Q211 122 229 111T276 99Q310 99 339 108T383 125V251ZM272 633L105 778H303L435 633H272Z"  />
<glyph unicode="&#xE1;" horiz-adv-x="637" d="M392 0V37Q363 18 316 2T212 -14Q131 -14 88 26T45 149V172Q45 229 65 262T123 313T211 336T323 341H376V372Q376 398 372 414T357 439T326 451T271 455Q255 455 241 455T209 453L199 409H87V552Q99 556 121 562T173 573T236 582T307 586Q374 586 420 575T496 538T538 472T551 372V132L596 127V0H392ZM383 251H325Q295 251 274 249T238 239T218 217T211 178V155Q211 122 229 111T276 99Q310 99 339 108T383 125V251ZM381 633H218L350 778H547L381 633Z"  />
<glyph unicode="&#xE2;" horiz-adv-x="637" d="M392 0V37Q363 18 316 2T212 -14Q131 -14 88 26T45 149V172Q45 229 65 262T123 313T211 336T323 341H376V372Q376 398 372 414T357 439T326 451T271 455Q255 455 241 455T209 453L199 409H87V552Q99 556 121 562T173 573T236 582T307 586Q374 586 420 575T496 538T538 472T551 372V132L596 127V0H392ZM383 251H325Q295 251 274 249T238 239T218 217T211 178V155Q211 122 229 111T276 99Q310 99 339 108T383 125V251ZM400 633L313 713L227 633H75L209 778H418L552 633H400Z"  />
<glyph unicode="&#xE3;" horiz-adv-x="637" d="M392 0V37Q363 18 316 2T212 -14Q131 -14 88 26T45 149V172Q45 229 65 262T123 313T211 336T323 341H376V372Q376 398 372 414T357 439T326 451T271 455Q255 455 241 455T209 453L199 409H87V552Q99 556 121 562T173 573T236 582T307 586Q374 586 420 575T496 538T538 472T551 372V132L596 127V0H392ZM383 251H325Q295 251 274 249T238 239T218 217T211 178V155Q211 122 229 111T276 99Q310 99 339 108T383 125V251ZM550 768Q550 730 541 703T517 660T479 636T431 628Q408 628 382 634T324 657L279 683Q262 693 250 698T225 703Q207 703 201 692T195 656V633H96V656Q96 695 105 721T130 764T169 788T219 796Q244 796 265 790T316 767L360 742Q376 733 392 728T422 722Q440 722 446 733T452 768V791H550V768H550Z"  />
<glyph unicode="&#xE4;" horiz-adv-x="637" d="M392 0V37Q363 18 316 2T212 -14Q131 -14 88 26T45 149V172Q45 229 65 262T123 313T211 336T323 341H376V372Q376 398 372 414T357 439T326 451T271 455Q255 455 241 455T209 453L199 409H87V552Q99 556 121 562T173 573T236 582T307 586Q374 586 420 575T496 538T538 472T551 372V132L596 127V0H392ZM383 251H325Q295 251 274 249T238 239T218 217T211 178V155Q211 122 229 111T276 99Q310 99 339 108T383 125V251ZM369 645V773H509V645H369ZM255 645H115V773H255V645Z"  />
<glyph unicode="&#xE5;" horiz-adv-x="637" d="M392 0V37Q363 18 316 2T212 -14Q131 -14 88 26T45 149V172Q45 229 65 262T123 313T211 336T323 341H376V372Q376 398 372 414T357 439T326 451T271 455Q255 455 241 455T209 453L199 409H87V552Q99 556 121 562T173 573T236 582T307 586Q374 586 420 575T496 538T538 472T551 372V132L596 127V0H392ZM383 251H325Q295 251 274 249T238 239T218 217T211 178V155Q211 122 229 111T276 99Q310 99 339 108T383 125V251ZM466 741Q466 681 426 650T325 619Q294 619 268 627T223 650T192 688T181 741Q181 771 192 794T222 832T268 856T325 864Q386 864 426 833T466 741ZM380 741Q380 767 364 778T325 789Q300 789 285 778T269 741Q269 717 284 706T325 694Q348 694 364 705T380 741Z"  />
<glyph unicode="&#xE6;" horiz-adv-x="968" d="M552 238V230Q552 203 555 181T571 144T611 121T684 112Q709 112 737 112T794 114T850 118T899 123V10Q882 6 857 2T802 -6T737 -12T667 -14Q592 -14 537 2T447 53Q391 15 337 1T214 -14Q133 -14 91 26T48 149V172Q48 229 68 262T126 313T214 336T326 341H378V372Q378 398 375 414T362 439T332 451T279 455Q262 455 250 455T211 453L201 409H89V552Q101 556 123 562T175 573T239 582T310 586Q381 586 420 575T485 542Q515 563 556 574T654 586Q734 586 786 562T870 498T913 407T926 301V238H552ZM756 342Q756 366 753 387T738 424T707 450T653 460Q620 460 601 451T570 425T556 387T552 342V334H756V342ZM384 251H327Q297 251 276 249T241 239T221 217T214 178V155Q214 122 231 111T278 99Q312 99 341 108T384 125V251Z"  />
<glyph unicode="&#xE7;" horiz-adv-x="541" d="M494 8Q469 1 421 -6T304 -14Q172 -14 111 53T49 255V318Q49 454 110 520T304 586Q373 586 424 578T494 564V404H386L377 448Q366 449 354 449T333 450Q306 450 286 445T251 426T230 385T223 318V255Q223 213 230 187T251 147T287 127T336 121Q362 121 399 123T494 129V8ZM275 -202H116L221 -62H407L275 -202Z"  />
<glyph unicode="&#xE8;" horiz-adv-x="637" d="M220 238V230Q220 203 223 182T240 147T280 125T353 118Q375 118 403 118T460 120T518 124T567 128V11Q533 3 476 -5T345 -14Q266 -14 210 1T117 48T64 131T47 257V309Q47 452 119 519T322 586Q402 586 454 562T538 498T581 406T594 297V238H220ZM424 342Q424 366 421 387T407 424T376 450T322 460Q289 460 270 451T239 425T225 387T221 342V334H424V342ZM280 633L113 778H311L443 633H280Z"  />
<glyph unicode="&#xE9;" horiz-adv-x="637" d="M220 238V230Q220 203 223 182T240 147T280 125T353 118Q375 118 403 118T460 120T518 124T567 128V11Q533 3 476 -5T345 -14Q266 -14 210 1T117 48T64 131T47 257V309Q47 452 119 519T322 586Q402 586 454 562T538 498T581 406T594 297V238H220ZM424 342Q424 366 421 387T407 424T376 450T322 460Q289 460 270 451T239 425T225 387T221 342V334H424V342ZM374 633H211L343 778H540L374 633Z"  />
<glyph unicode="&#xEA;" horiz-adv-x="637" d="M220 238V230Q220 203 223 182T240 147T280 125T353 118Q375 118 403 118T460 120T518 124T567 128V11Q533 3 476 -5T345 -14Q266 -14 210 1T117 48T64 131T47 257V309Q47 452 119 519T322 586Q402 586 454 562T538 498T581 406T594 297V238H220ZM424 342Q424 366 421 387T407 424T376 450T322 460Q289 460 270 451T239 425T225 387T221 342V334H424V342ZM412 633L325 713L239 633H87L221 778H430L564 633H412Z"  />
<glyph unicode="&#xEB;" horiz-adv-x="637" d="M220 238V230Q220 203 223 182T240 147T280 125T353 118Q375 118 403 118T460 120T518 124T567 128V11Q533 3 476 -5T345 -14Q266 -14 210 1T117 48T64 131T47 257V309Q47 452 119 519T322 586Q402 586 454 562T538 498T581 406T594 297V238H220ZM424 342Q424 366 421 387T407 424T376 450T322 460Q289 460 270 451T239 425T225 387T221 342V334H424V342ZM376 645V773H516V645H376ZM262 645H122V773H262V645Z"  />
<glyph unicode="&#xEC;" horiz-adv-x="346" d="M41 0V128L87 132V439L41 444V572H261V132L307 128V0H41ZM109 633L-58 778H140L272 633H109Z"  />
<glyph unicode="&#xED;" horiz-adv-x="346" d="M41 0V128L87 132V439L41 444V572H261V132L307 128V0H41ZM215 633H52L184 778H381L215 633Z"  />
<glyph unicode="&#xEE;" horiz-adv-x="346" d="M41 0V128L87 132V439L41 444V572H261V132L307 128V0H41ZM252 633L165 713L79 633H-73L61 778H270L404 633H252Z"  />
<glyph unicode="&#xEF;" horiz-adv-x="346" d="M41 0V128L87 132V439L41 444V572H261V132L307 128V0H41ZM226 645V773H366V645H226ZM112 645H-28V773H112V645Z"  />
<glyph unicode="&#xF0;" horiz-adv-x="646" d="M597 271Q597 123 527 55T323 -14Q188 -14 119 50T49 252V298Q49 369 67 419T120 502T205 550T321 565Q363 565 400 549Q360 624 276 655L161 573L118 621L197 678Q176 682 154 684T108 687Q102 687 95 687T78 686V788Q92 790 107 790T133 790Q181 790 222 785T300 768L375 824L420 776L373 741Q430 715 472 673T542 577T583 459T597 325V271ZM423 308Q423 374 400 402T323 430Q270 430 246 401T222 301V252Q222 178 245 150T323 121Q376 121 399 149T423 252V308Z"  />
<glyph unicode="&#xF1;" horiz-adv-x="710" d="M449 0V362Q449 412 436 432T382 452Q357 452 326 444T260 421V132L306 127V0H40V127L86 132V440L40 445V572H250V525Q294 553 341 569T436 586Q500 586 537 569T594 521T619 449T624 362V132L670 127V0H449ZM573 769Q573 731 564 704T540 661T502 637T454 629Q431 629 405 635T347 658L302 684Q285 694 273 699T248 704Q230 704 224 693T218 657V634H119V657Q119 696 128 722T153 765T192 789T242 797Q267 797 288 791T339 768L383 743Q399 734 415 729T445 723Q463 723 469 734T475 769V792H573V769H573Z"  />
<glyph unicode="&#xF2;" horiz-adv-x="646" d="M597 255Q597 113 525 50T322 -14Q257 -14 207 1T121 49T68 133T49 255V317Q49 388 67 439T121 522T206 570T322 586Q453 586 525 523T597 317V255ZM423 317Q423 392 400 421T322 451Q269 451 246 422T222 317V255Q222 180 245 151T322 121Q376 121 399 150T423 255V317ZM276 633L109 778H307L439 633H276Z"  />
<glyph unicode="&#xF3;" horiz-adv-x="646" d="M597 255Q597 113 525 50T322 -14Q257 -14 207 1T121 49T68 133T49 255V317Q49 388 67 439T121 522T206 570T322 586Q453 586 525 523T597 317V255ZM423 317Q423 392 400 421T322 451Q269 451 246 422T222 317V255Q222 180 245 151T322 121Q376 121 399 150T423 255V317ZM369 633H206L338 778H535L369 633Z"  />
<glyph unicode="&#xF4;" horiz-adv-x="646" d="M597 255Q597 113 525 50T322 -14Q257 -14 207 1T121 49T68 133T49 255V317Q49 388 67 439T121 522T206 570T322 586Q453 586 525 523T597 317V255ZM423 317Q423 392 400 421T322 451Q269 451 246 422T222 317V255Q222 180 245 151T322 121Q376 121 399 150T423 255V317ZM408 633L321 713L235 633H83L217 778H426L560 633H408Z"  />
<glyph unicode="&#xF5;" horiz-adv-x="646" d="M597 255Q597 113 525 50T322 -14Q257 -14 207 1T121 49T68 133T49 255V317Q49 388 67 439T121 522T206 570T322 586Q453 586 525 523T597 317V255ZM423 317Q423 392 400 421T322 451Q269 451 246 422T222 317V255Q222 180 245 151T322 121Q376 121 399 150T423 255V317ZM550 768Q550 730 541 703T517 660T479 636T431 628Q408 628 382 634T324 657L279 683Q262 693 250 698T225 703Q207 703 201 692T195 656V633H96V656Q96 695 105 721T130 764T169 788T219 796Q244 796 265 790T316 767L360 742Q376 733 392 728T422 722Q440 722 446 733T452 768V791H550V768H550Z"  />
<glyph unicode="&#xF6;" horiz-adv-x="646" d="M597 255Q597 113 525 50T322 -14Q257 -14 207 1T121 49T68 133T49 255V317Q49 388 67 439T121 522T206 570T322 586Q453 586 525 523T597 317V255ZM423 317Q423 392 400 421T322 451Q269 451 246 422T222 317V255Q222 180 245 151T322 121Q376 121 399 150T423 255V317ZM378 645V773H518V645H378ZM264 645H124V773H264V645Z"  />
<glyph unicode="&#xF7;" horiz-adv-x="679" d="M254 72V227H425V72H254ZM593 318H86V454H593V318ZM254 543V697H425V543H254Z"  />
<glyph unicode="&#xF8;" horiz-adv-x="646" d="M597 255Q597 113 525 50T322 -14Q235 -14 175 13L143 -28H22L100 72Q49 136 49 255V317Q49 388 67 439T121 522T206 570T322 586Q413 586 476 556L510 600H631L549 495Q572 463 584 419T597 317V255ZM423 317Q423 392 400 421T322 451Q269 451 246 422T222 317V255Q222 180 245 151T322 121Q376 121 399 150T423 255V317Z"  />
<glyph unicode="&#xF9;" horiz-adv-x="710" d="M460 0V46Q415 20 366 3T260 -14Q201 -14 167 5T114 55T91 126T86 210V440L40 446V572H260V210Q260 160 273 140T328 120Q353 120 384 128T449 151V440L404 446V572H624V132L670 126V0H460ZM298 633L131 778H329L461 633H298Z"  />
<glyph unicode="&#xFA;" horiz-adv-x="710" d="M460 0V46Q415 20 366 3T260 -14Q201 -14 167 5T114 55T91 126T86 210V440L40 446V572H260V210Q260 160 273 140T328 120Q353 120 384 128T449 151V440L404 446V572H624V132L670 126V0H460ZM402 633H239L371 778H568L402 633Z"  />
<glyph unicode="&#xFB;" horiz-adv-x="710" d="M460 0V46Q415 20 366 3T260 -14Q201 -14 167 5T114 55T91 126T86 210V440L40 446V572H260V210Q260 160 273 140T328 120Q353 120 384 128T449 151V440L404 446V572H624V132L670 126V0H460ZM436 633L349 713L263 633H111L245 778H454L588 633H436Z"  />
<glyph unicode="&#xFC;" horiz-adv-x="710" d="M460 0V46Q415 20 366 3T260 -14Q201 -14 167 5T114 55T91 126T86 210V440L40 446V572H260V210Q260 160 273 140T328 120Q353 120 384 128T449 151V440L404 446V572H624V132L670 126V0H460ZM406 645V773H546V645H406ZM292 645H152V773H292V645Z"  />
<glyph unicode="&#xFD;" horiz-adv-x="697" d="M604 439L459 0Q442 -52 422 -92T375 -159T310 -201T221 -215Q175 -215 133 -212T61 -201V-88Q98 -89 120 -89T167 -90Q199 -90 214 -75T244 -23L255 7L93 439L37 445V572H234L317 283Q328 246 337 206T353 131H355Q360 166 368 204T386 281L462 572H660V445L604 439ZM412 633H249L381 778H578L412 633Z"  />
<glyph unicode="&#xFE;" horiz-adv-x="673" d="M40 -202V-75L85 -70V648L40 652V780H246V537Q288 563 329 574T413 586Q462 586 501 572T567 526T609 444T624 322V255Q624 181 606 130T553 46T470 0T360 -15Q334 -15 308 -13T259 -6V-70L304 -75V-202H40ZM450 322Q450 395 429 422T358 450Q335 450 313 446T258 427V128Q281 124 303 122T343 120Q369 120 389 125T422 146T443 187T450 255V322Z"  />
<glyph unicode="&#xFF;" horiz-adv-x="697" d="M604 439L459 0Q442 -52 422 -92T375 -159T310 -201T221 -215Q175 -215 133 -212T61 -201V-88Q98 -89 120 -89T167 -90Q199 -90 214 -75T244 -23L255 7L93 439L37 445V572H234L317 283Q328 246 337 206T353 131H355Q360 166 368 204T386 281L462 572H660V445L604 439ZM408 645V773H548V645H408ZM294 645H154V773H294V645Z"  />
<glyph unicode="&#x131;" horiz-adv-x="346" d="M41 0V128L87 132V439L41 444V572H261V132L307 128V0H41Z"  />
<glyph unicode="&#x152;" horiz-adv-x="1038" d="M534 0Q493 -7 454 -12T371 -17Q302 -17 244 0T143 59T76 167T52 332V410Q52 508 76 574T142 682T242 741T370 759Q412 759 453 755T534 743H976V558H863L854 604H657V447H955V314H657V139H854L863 187H976V0H534ZM474 604Q445 608 425 609T380 611Q345 611 319 601T274 568T247 506T237 409V332Q237 275 246 236T274 174T319 141T380 131Q392 131 402 131T422 132T445 134T474 138V604Z"  />
<glyph unicode="&#x153;" horiz-adv-x="1016" d="M595 238V230Q595 203 598 181T614 144T654 121T727 112Q752 112 780 112T837 114T893 118T942 123V10Q925 6 900 2T845 -6T780 -12T710 -14Q636 -14 587 2T508 46Q442 -14 321 -14Q256 -14 205 1T119 49T66 133T47 255V317Q47 388 65 439T119 522T205 570T321 586Q383 586 430 571T509 525Q541 556 588 571T697 586Q777 586 829 562T913 498T956 407T969 301V238H595ZM799 342Q799 366 796 387T782 424T751 450T697 460Q665 460 645 451T614 426T599 391T595 350V334H799V342ZM422 317Q422 392 398 421T321 451Q267 451 244 422T220 317V255Q220 180 243 150T321 120Q374 120 398 150T422 255V317Z"  />
<glyph unicode="&#x160;" horiz-adv-x="648" d="M601 210Q601 97 527 40T323 -17Q284 -17 246 -15T173 -10T112 -2T66 7V183H179L189 123Q218 121 245 121T300 121Q360 121 387 139T415 200Q415 215 411 227T397 249T370 268T328 289L220 337Q181 355 149 374T95 419T60 476T47 553Q47 664 121 712T337 760Q374 760 410 758T477 751T535 743T577 734V564H464L453 621Q427 623 399 623T347 624Q289 624 260 610T231 558Q231 544 235 534T248 514T274 496T316 475L420 429Q465 409 499 389T555 344T589 286T601 210ZM457 792H248L114 937H266L352 856L439 937H591L457 792Z"  />
<glyph unicode="&#x161;" horiz-adv-x="552" d="M508 162Q508 73 447 30T257 -14Q227 -14 196 -12T137 -6T87 1T53 8V154H167L176 107Q194 106 212 106T248 105Q300 105 318 117T336 154Q336 166 333 174T320 190T294 205T250 224L208 241Q168 256 137 273T85 311T54 360T43 423Q43 471 59 502T106 552T180 578T278 586Q309 586 341 584T401 579T453 571T490 563V425H377L367 466Q350 467 330 467T296 468Q252 468 233 461T214 428Q214 417 217 409T228 395T251 382T289 366L339 347Q386 329 418 311T470 272T499 224T508 162ZM379 633H170L36 778H188L274 697L361 778H513L379 633Z"  />
<glyph unicode="&#x178;" horiz-adv-x="700" d="M614 608L441 277V130L488 124V0H209V124L259 130V276L85 608L36 614V743H211L305 549Q317 523 329 493T349 439H352Q360 463 372 493T396 549L490 743H664V614L614 608ZM408 801V929H548V801H408ZM294 801H154V929H294V801Z"  />
<glyph unicode="&#x17D;" horiz-adv-x="650" d="M47 0V145L377 600H174L165 549H56V743H594V597L264 143H484L495 197H603V0H47ZM435 792H226L92 937H244L330 856L417 937H569L435 792Z"  />
<glyph unicode="&#x17E;" horiz-adv-x="553" d="M44 0V130L313 444H161L152 404H53V572H508V440L241 127H401L411 173H509V0H44ZM391 633H182L48 778H200L286 697L373 778H525L391 633Z"  />
<glyph unicode="&#x192;" horiz-adv-x="664" d="M602 642Q576 644 560 644T530 645Q513 645 501 643T481 634T468 615T458 582L440 454H588L572 331H423L380 10Q373 -41 356 -74T313 -127T255 -154T184 -162Q140 -162 108 -157T50 -147L63 -45Q88 -47 104 -47T137 -48Q152 -48 163 -46T182 -38T196 -19T206 15L249 331H117L133 454H266L284 586Q291 637 308 671T351 724T410 752T483 760Q525 760 557 755T614 744L602 642Z"  />
<glyph unicode="&#x2C6;" horiz-adv-x="547" d="M360 633L273 713L187 633H35L169 778H378L512 633H360Z"  />
<glyph unicode="&#x2DC;" horiz-adv-x="518" d="M488 768Q488 730 479 703T455 660T417 636T369 628Q346 628 320 634T262 657L217 683Q200 693 188 698T163 703Q145 703 139 692T133 656V633H34V656Q34 695 43 721T68 764T107 788T157 796Q182 796 203 790T254 767L298 742Q314 733 330 728T360 722Q378 722 384 733T390 768V791H488V768H488Z"  />
<glyph unicode="&#x2013;" horiz-adv-x="476" d="M59 233V357H417V233H59Z"  />
<glyph unicode="&#x2014;" horiz-adv-x="652" d="M59 233V357H593V233H59Z"  />
<glyph unicode="&#x2018;" horiz-adv-x="257" d="M176 522H20L116 780H237L176 522Z"  />
<glyph unicode="&#x2019;" horiz-adv-x="257" d="M142 522H20L81 780H237L142 522Z"  />
<glyph unicode="&#x201A;" horiz-adv-x="257" d="M142 -99H20L81 159H237L142 -99Z"  />
<glyph unicode="&#x201C;" horiz-adv-x="492" d="M412 522H256L351 780H472L412 522ZM176 522H20L115 780H236L176 522Z"  />
<glyph unicode="&#x201D;" horiz-adv-x="492" d="M378 522H256L317 780H473L378 522ZM142 522H20L81 780H237L142 522Z"  />
<glyph unicode="&#x201E;" horiz-adv-x="492" d="M378 -99H256L317 159H473L378 -99ZM237 159L142 -99H20L81 159H237Z"  />
<glyph unicode="&#x2020;" horiz-adv-x="541" d="M354 450V-130H180V450H60V586H180V778H354V586H481V450H354Z"  />
<glyph unicode="&#x2021;" horiz-adv-x="541" d="M354 211V-130H180V211H60V346H180V461H60V597H180V778H354V597H481V461H354V346H481V211H354Z"  />
<glyph unicode="&#x2022;" horiz-adv-x="515" d="M448 367Q448 329 433 296T392 237T332 198T257 183Q218 183 183 197T123 237T82 295T67 367Q67 406 82 439T122 498T183 538T257 553Q297 553 331 539T392 499T433 440T448 367Z"  />
<glyph unicode="&#x2026;" horiz-adv-x="945" d="M705 0V166H880V0H705ZM560 0H385V166H560V0ZM64 0V166H239V0H64Z"  />
<glyph unicode="&#x2030;" horiz-adv-x="1595" d="M1546 201Q1546 96 1498 42T1350 -12Q1250 -12 1202 42T1153 201V236Q1153 341 1201 395T1350 449Q1450 449 1498 395T1546 236V201ZM1416 237Q1416 273 1412 295T1398 330T1377 347T1350 352Q1335 352 1323 348T1302 330T1288 295T1283 237V201Q1283 165 1288 143T1301 108T1322 90T1350 85Q1365 85 1377 90T1398 107T1411 142T1416 201V237ZM1100 201Q1100 96 1052 42T904 -12Q804 -12 756 42T707 201V236Q707 341 755 395T904 449Q1004 449 1052 395T1100 236V201ZM970 237Q970 273 965 295T952 330T931 347T903 352Q888 352 876 348T855 330T842 295T837 237V201Q837 165 841 143T855 108T876 90T903 85Q918 85 930 90T951 107T965 142T970 201V237ZM397 0H250L747 746H894L397 0ZM441 511Q441 461 431 422T397 356T336 314T245 299Q192 299 155 314T94 356T60 423T49 511V546Q49 595 59 634T93 701T154 744T245 759Q298 759 335 745T396 702T430 635T441 546V511ZM311 546Q311 581 308 603T296 639T276 658T245 663Q210 663 195 639T179 546V511Q179 476 183 454T195 419T215 400T245 395Q263 395 275 400T296 418T307 454T311 511V546Z"  />
<glyph unicode="&#x2039;" horiz-adv-x="352" d="M154 63L38 285L154 507H314L203 285L314 63H154Z"  />
<glyph unicode="&#x203A;" horiz-adv-x="352" d="M199 63H38L150 285L38 507H199L314 285L199 63Z"  />
<glyph unicode="&#x20AC;" horiz-adv-x="688" d="M632 4Q617 0 595 -4T546 -11T493 -15T444 -17Q380 -17 325 -6T226 37T155 121T117 258H51V329H112Q111 350 111 371T111 413H51V484H116Q125 568 151 621T219 705T314 748T432 760Q459 760 488 759T545 754T595 747T632 739V564H522L513 609Q499 610 485 610T456 611Q427 611 402 607T358 590T326 552T307 484H604L585 413H301Q300 393 300 372T302 329H560L542 258H308Q315 215 328 190T362 152T408 136T466 132Q499 132 545 134T632 140V4H632Z"  />
<glyph unicode="&#x2122;" horiz-adv-x="976" d="M785 412V521Q785 538 785 555T787 590H786Q779 578 772 564T756 538L706 467H647L598 538Q591 549 583 563T568 590H566Q569 557 569 521V412L601 408V335H421V408L453 412V673L421 677V750H569L650 626Q657 615 663 603T676 579H677Q684 591 689 603T703 626L785 750H933V677L901 673V412L932 408V335H753V408L785 412ZM330 633L324 663H278V412L309 408V335H126V408L157 412V663H110L104 633H40V750H394V633H330Z"  />

</font>
</defs>
</svg>
