<?xml  version="1.0" encoding="UTF-8"?>
<!DOCTYPE svg PUBLIC "-//W3C//DTD SVG 1.0//EN" "http://www.w3.org/TR/2001/REC-SVG-20010904/DTD/svg10.dtd" >
<svg xmlns="http://www.w3.org/2000/svg" >
<metadata>
<version>1.0</version>
<id><![CDATA[Soho W01 Medium]]></id>
<vendor>Monotype Imaging Inc.</vendor>
<credits>
<name>Fonts.com WebFonts</name>
<URL>http://webfonts.fonts.com</URL>
<role>Home of the Web fonts</role>
</credits>
<license>
<URL>http://webfonts.fonts.com/Legal</URL>
</license>
<copyright><![CDATA[Copyright (c) 2007 Monotype Imaging Inc. Soho is designed by Sebastian Lester. All rights reserved.]]></copyright>
<trademark><![CDATA[Soho is a trademark of Monotype Imaging, Inc and may be registered in certain jurisdictions.]]></trademark>
<licensee>
<name></name>
</licensee>
</metadata>
<defs >
<font horiz-adv-x="602" id="576e4f32-4fdd-4305-a5ba-efee7439de7f">
<font-face font-family="" panose-1="2 4 6 3 4 5 6 2 2 4" ascent="778" descent="-222" units-per-em="1000" alphabetic="0">
</font-face>
<missing-glyph horiz-adv-x="0" />

<glyph unicode="&#xA;" />
<glyph unicode="&#xD;" horiz-adv-x="0" />
<glyph unicode=" " horiz-adv-x="196" />
<glyph unicode="!" horiz-adv-x="286" d="M75 0V154H210V0H75ZM203 212H83L70 777H215L203 212Z"  />
<glyph unicode="&quot;" horiz-adv-x="410" d="M337 512H243L268 766H390L337 512ZM168 766L115 512H20L46 766H168Z"  />
<glyph unicode="#" horiz-adv-x="759" d="M545 185L524 0H412L432 185H280L260 0H147L168 185H76V282H178L197 451H76V547H207L230 743H342L320 547H472L494 743H606L585 547H683V451H574L555 282H683V185H545ZM309 451L291 282H443L461 451H309Z"  />
<glyph unicode="$" horiz-adv-x="649" d="M583 200Q583 110 532 58T382 -9V-124H266V-13Q210 -11 161 -5T85 8V174H177L187 103Q211 102 240 102T306 101Q442 101 442 196Q442 232 423 254T350 301L231 355Q193 372 163 390T111 433T78 488T66 563Q66 728 266 752V859H382V756Q410 754 437 752T488 746T529 740T557 734V575H465L454 640Q427 642 399 643T341 644Q275 644 241 627T206 565Q206 548 210 535T224 511T253 488T298 465L414 414Q454 396 485 377T539 332T572 274T583 200Z"  />
<glyph unicode="%" horiz-adv-x="1115" d="M1059 201Q1059 98 1013 44T873 -10Q779 -10 733 44T686 201V245Q686 349 732 402T873 456Q966 456 1012 403T1059 245V201ZM954 245Q954 283 948 307T931 346T906 365T873 370Q855 370 841 365T815 346T798 308T792 245V201Q792 163 798 139T815 100T840 81T873 75Q891 75 905 80T931 100T948 138T954 201V245ZM371 0H253L739 745H857L371 0ZM427 502Q427 454 417 415T385 348T328 305T241 290Q190 290 155 305T97 349T65 416T55 502V546Q55 592 65 631T97 698T154 741T241 757Q292 757 327 742T385 700T417 633T427 546V502ZM322 546Q322 583 317 607T303 645T278 666T241 672Q199 672 180 645T160 546V502Q160 465 165 441T179 403T204 382T241 376Q262 376 277 382T302 402T317 441T322 502V546Z"  />
<glyph unicode="&amp;" horiz-adv-x="780" d="M685 362Q685 293 673 235T629 128L730 30V0H577L538 40Q505 17 447 2T312 -14Q261 -14 215 -5T133 26T77 85T56 179V186Q56 218 62 244T84 294T124 339T188 380L177 390Q131 432 110 476T88 577V581Q88 673 150 715T332 758Q366 758 400 756T464 750T517 742T554 734V576H463L452 645Q443 646 430 646T400 647T366 648T332 649Q278 649 251 636T223 581V577Q223 558 227 543T241 514T266 484T302 447L547 208Q561 238 568 278T575 362L524 370V448H736V370L685 362ZM265 305Q221 282 207 253T193 186V179Q193 152 204 134T233 105T275 90T326 85Q369 85 405 93T462 113L265 305Z"  />
<glyph unicode="&apos;" horiz-adv-x="188" d="M115 512H20L46 766H168L115 512Z"  />
<glyph unicode="(" horiz-adv-x="381" d="M219 -203Q193 -170 166 -123T117 -16T80 114T65 266V273Q65 354 79 425T116 556T166 662T219 743H342Q309 694 282 643T236 534T207 412T196 273V266Q196 192 206 128T236 7T282 -102T342 -203H219Z"  />
<glyph unicode=")" horiz-adv-x="381" d="M317 266Q317 185 303 114T266 -16T216 -122T163 -203H39Q73 -154 100 -103T146 6T175 128T186 266V273Q186 347 176 411T146 533T100 642T39 743H163Q188 710 215 663T265 556T302 426T317 273V266H317Z"  />
<glyph unicode="*" horiz-adv-x="545" d="M417 566Q383 554 343 549Q372 521 392 494L433 441L352 379L311 432Q290 460 272 495Q263 478 253 463T233 433L193 380L111 441L152 495Q163 509 175 522T201 550Q181 552 163 556T128 566L63 587L94 687L159 667Q194 656 229 638Q223 675 223 710V777H323V710Q323 693 322 675T316 637Q333 646 351 653T386 666L451 687L482 586L417 566Z"  />
<glyph unicode="+" horiz-adv-x="690" d="M399 333V131H296V333H88V442H296V644H399V442H604V333H399Z"  />
<glyph unicode="&#x2c;" horiz-adv-x="317" d="M140 -92H28L122 155H266L140 -92Z"  />
<glyph unicode="-" horiz-adv-x="390" d="M68 242V346H322V242H68Z"  />
<glyph unicode="." horiz-adv-x="281" d="M74 0V154H207V0H74Z"  />
<glyph unicode="/" horiz-adv-x="457" d="M149 0H17L309 743H440L149 0Z"  />
<glyph unicode="0" horiz-adv-x="676" d="M621 316Q621 153 550 69T339 -15Q197 -15 127 69T56 316V426Q56 589 126 673T339 758Q479 758 550 674T621 426V316ZM481 426Q481 489 471 530T442 596T397 631T338 641Q306 641 280 631T236 596T207 530T196 426V316Q196 253 206 212T235 146T280 111T338 101Q370 101 396 111T441 146T470 212T481 316V426Z"  />
<glyph unicode="1" horiz-adv-x="586" d="M58 0V107L224 114V612L58 564V676L262 747H363V114L528 107V0H58Z"  />
<glyph unicode="2" horiz-adv-x="624" d="M61 0V93Q61 159 73 205T111 288T181 355T286 419Q335 444 363 462T406 497T425 528T429 565Q429 611 396 628T278 646Q257 646 228 645T170 642L161 574H69V730Q81 734 105 739T161 748T228 755T296 758Q438 758 504 714T570 571Q570 534 561 504T528 446T466 390T371 331Q315 302 281 280T229 236T204 189T197 127V117H458L467 181H559V0H61Z"  />
<glyph unicode="3" horiz-adv-x="628" d="M573 204Q573 143 555 102T502 34T414 -3T294 -15Q260 -15 226 -12T162 -5T107 5T69 15V174H161L171 101Q197 99 226 98T284 97Q321 97 349 101T396 118T424 152T434 209V229Q434 251 430 269T414 301T379 321T316 328H107V434H316Q355 434 378 442T413 463T430 495T434 536V548Q434 576 427 595T403 625T356 640T284 645Q257 645 228 645T173 642L163 574H72V730Q81 733 104 738T158 747T224 755T294 758Q362 758 414 748T501 715T555 652T573 556V544Q573 495 553 451T483 382Q533 358 553 316T573 224V204H573Z"  />
<glyph unicode="4" horiz-adv-x="686" d="M532 179V84L582 79V0H342V79L393 84V179H46V295L400 743H532V289H638V179H532ZM397 574L166 289H397V574Z"  />
<glyph unicode="5" horiz-adv-x="617" d="M562 215Q562 152 543 108T487 37T397 -2T277 -15Q239 -15 203 -12T137 -5T85 3T51 11V173H142L152 100Q178 98 203 97T257 96Q302 96 333 102T384 122T413 158T422 215V237Q422 268 415 289T390 324T339 342T258 348H62L96 743H537V572H446L437 629H210L194 456H279Q357 456 410 444T498 405T547 337T562 238V215H562Z"  />
<glyph unicode="6" horiz-adv-x="664" d="M608 226Q608 153 583 107T518 33T430 -4T337 -15Q274 -15 222 -1T134 47T77 140T56 288V463Q56 533 69 588T116 680T205 738T348 758Q384 758 418 755T483 748T536 740T573 732V574H482L472 642Q446 644 417 644T360 645Q303 645 270 634T220 602T199 550T194 480V451Q210 455 229 458T270 464T311 467T347 469Q399 469 446 462T530 432T587 369T608 262V226ZM470 258Q470 294 461 316T435 350T393 366T335 370Q309 370 271 367T194 356V267Q194 214 204 181T232 128T277 101T338 93Q365 93 389 100T431 124T459 166T470 226V258Z"  />
<glyph unicode="7" horiz-adv-x="617" d="M249 0H98L439 629H156L147 569H56V743H574V614L249 0Z"  />
<glyph unicode="8" horiz-adv-x="688" d="M629 213Q629 134 605 89T542 20T451 -9T346 -15H342Q288 -15 237 -9T147 20T83 88T59 213V221Q59 281 79 319T141 384Q104 407 83 444T61 541V552Q61 617 84 657T146 719T236 750T342 758H346Q401 758 451 750T541 720T603 657T626 552V541Q626 482 605 445T547 384Q588 358 608 320T629 221V213ZM491 222Q491 281 472 307T398 334H289Q236 334 216 307T196 222V215Q196 174 206 150T236 112T282 95T342 91H346Q379 91 405 95T451 112T480 149T491 215V222ZM490 548Q490 580 480 600T450 631T405 647T346 651H342Q310 651 284 647T238 632T209 600T198 548V538Q198 490 217 463T289 436H398Q452 436 471 463T490 538V548Z"  />
<glyph unicode="9" horiz-adv-x="664" d="M608 281Q608 212 595 157T548 64T459 5T316 -15Q280 -15 245 -12T180 -5T127 3T90 11V169H181L191 101Q217 99 247 98T306 97Q362 97 394 108T444 140T465 193T470 263V291Q454 287 434 284T394 279T353 275T317 274Q264 274 217 281T134 311T77 374T56 481V516Q56 589 81 636T146 710T233 747T326 758Q389 758 441 745T530 697T587 605T608 459V281ZM470 476Q470 528 460 562T432 615T387 642T326 650Q298 650 274 643T232 619T204 577T194 517V484Q194 449 202 427T228 393T270 377T328 372Q354 372 392 375T470 387V476Z"  />
<glyph unicode=":" horiz-adv-x="290" d="M78 0V155H211V0H78ZM211 399H78V553H211V399Z"  />
<glyph unicode=";" horiz-adv-x="313" d="M117 -92H8L101 155H246L117 -92ZM102 399V553H235V399H102Z"  />
<glyph unicode="&lt;" horiz-adv-x="690" d="M409 127L124 388L409 648H565L282 388L565 127H409Z"  />
<glyph unicode="=" horiz-adv-x="690" d="M110 206V316H578V206H110ZM110 458V569H578V458H110Z"  />
<glyph unicode="&gt;" horiz-adv-x="690" d="M280 127H124L408 388L124 648H280L565 388L280 127Z"  />
<glyph unicode="?" horiz-adv-x="539" d="M50 762Q90 775 140 782T241 790Q350 790 407 752T464 624V617Q464 592 459 569T443 523T411 474T361 421Q326 388 306 365T276 323T264 286T261 244V212H141V244Q141 276 143 301T155 350T181 398T229 453Q255 479 271 499T298 536T311 568T315 599V606Q315 646 288 660T208 674Q200 674 194 674T180 674T165 674T145 672L135 609H50V762ZM268 154V0H135V154H268Z"  />
<glyph unicode="@" horiz-adv-x="863" d="M810 368Q810 298 792 239T730 138T617 72T442 48Q330 48 279 84T228 204Q228 218 229 239T231 278Q235 339 251 379T295 445T358 480T439 491Q487 491 530 485T612 469L579 148Q657 167 692 224T727 369Q727 483 662 537T465 592Q370 592 306 560T204 470T150 336T134 169Q134 116 147 76T190 8T271 -34T394 -49Q423 -49 453 -48T508 -45T552 -42T577 -40V-95Q572 -96 554 -99T509 -105T453 -110T394 -112Q304 -112 239 -93T133 -38T72 50T52 170Q52 273 73 363T143 519T271 623T465 661Q635 661 722 586T810 368ZM495 399Q483 401 468 401T439 402Q418 402 401 398T371 381T349 343T337 277Q335 248 335 232T334 203Q334 161 357 146T440 131H469L495 399Z"  />
<glyph unicode="A" horiz-adv-x="782" d="M38 0V106L88 111L255 632L203 637V743H494L691 111L743 106V0H503V105L540 108L509 209H271L239 108L275 105V0H38ZM421 528Q412 557 405 588T394 645H386Q381 619 375 588T359 528L297 323H483L421 528Z"  />
<glyph unicode="B" horiz-adv-x="697" d="M644 215Q644 145 620 102T551 35T447 3T314 -6Q250 -6 187 -5T48 0V107L99 113V630L48 636V743Q123 746 188 747T318 749Q393 749 452 741T553 711T617 649T640 547V538Q640 490 619 448T546 382Q599 360 621 317T644 225V215ZM507 226Q507 250 501 270T478 303T433 324T362 332H235V109H322Q367 109 402 113T460 128T495 160T507 216V226ZM504 542Q504 574 493 592T458 620T402 632T325 635Q299 635 280 635T235 634V434H361Q404 434 432 440T476 460T498 491T504 533V542Z"  />
<glyph unicode="C" horiz-adv-x="611" d="M557 4Q544 1 523 -2T475 -8T422 -13T370 -15Q298 -15 240 0T140 54T76 157T53 322V422Q53 521 75 586T139 689T239 743T370 758Q394 758 421 756T475 752T522 746T557 739V568H464L454 634Q436 635 417 635T379 636Q332 636 298 627T240 593T206 528T194 422V322Q194 258 205 217T240 151T297 116T379 106Q398 106 417 106T454 108L464 176H557V4H557Z"  />
<glyph unicode="D" horiz-adv-x="731" d="M676 326Q676 244 657 182T597 78T490 15T332 -6Q263 -6 190 -4T48 1V106L100 114V630L48 638V743Q184 749 332 749Q513 749 594 666T676 420V326ZM537 420Q537 481 525 521T487 586T422 620T330 630H237V113H330Q383 113 422 123T486 158T524 224T537 326V420Z"  />
<glyph unicode="E" horiz-adv-x="625" d="M48 0V106L98 111V632L48 637V743H572V572H479L470 628H238V439H550V327H238V115H469L479 173H572V0H48Z"  />
<glyph unicode="F" horiz-adv-x="617" d="M239 326V111L289 106V0H48V106L99 111V632L48 637V743H572V571H480L470 627H239V438H551V326H239Z"  />
<glyph unicode="G" horiz-adv-x="669" d="M607 7Q592 4 567 0T511 -7T442 -12T365 -15Q301 -15 244 -1T145 51T78 153T53 319V424Q53 495 65 547T100 637T152 697T217 734T290 753T367 758Q408 758 447 755T519 748T574 740T606 734V568H514L503 632Q481 634 451 635T391 636Q346 636 309 629T246 600T206 535T192 424V319Q192 255 203 214T238 149T295 116T374 106Q402 106 428 106T475 109V294L382 302V396H607V7H607Z"  />
<glyph unicode="H" horiz-adv-x="803" d="M755 743V637L704 632V111L755 106V0H514V106L565 111V328H239V111L290 106V0H48V106L99 111V632L48 637V743H290V637L239 632V447H565V632L514 637V743H755Z"  />
<glyph unicode="I" horiz-adv-x="342" d="M50 0V106L101 111V632L50 637V743H291V637L241 632V111L291 106V0H50Z"  />
<glyph unicode="J" horiz-adv-x="338" d="M237 632V-37Q237 -132 197 -174T61 -216Q39 -216 14 -214T-26 -208V-112H35Q56 -112 68 -108T87 -96T95 -75T97 -41V632L47 637V743H287V637L237 632Z"  />
<glyph unicode="K" horiz-adv-x="717" d="M48 0V106L98 111V632L48 637V743H289V637L238 632V397L525 743H674V637L617 632L388 376L618 110L674 106V0H515L238 350V111L289 106V0H48Z"  />
<glyph unicode="L" horiz-adv-x="596" d="M48 0V106L98 111V632L48 637V743H289V637L238 632V118H451L461 182H554V0H48Z"  />
<glyph unicode="M" horiz-adv-x="894" d="M48 0V106L98 111V632L48 637V743H250L395 489Q409 466 421 442T444 394H446Q458 417 470 441T495 488L643 743H845V637L795 632V111L845 106V0H608V106L659 111V412Q659 448 660 483T663 554H661Q647 528 633 499T604 443L501 271H390L288 443Q273 469 259 498T231 554H229Q231 519 232 484T233 412V111L284 106V0H48Z"  />
<glyph unicode="N" horiz-adv-x="784" d="M736 743V637L685 632V0H523L280 446Q262 478 249 503T223 556H220Q223 523 224 486T226 415V111L277 106V0H48V106L98 111V632L48 637V743H259L502 307Q516 282 530 255T559 198H561Q559 233 558 270T556 340V632L505 637V743H736Z"  />
<glyph unicode="O" horiz-adv-x="717" d="M664 328Q664 238 643 173T582 67T486 5T358 -15Q287 -15 231 5T135 66T74 173T53 328V415Q53 505 74 570T135 677T231 738T358 758Q428 758 485 739T581 677T642 570T664 415V328ZM525 415Q525 477 513 519T480 588T427 625T358 637Q320 637 290 626T237 588T204 520T192 415V328Q192 266 204 224T237 155T289 118T358 106Q396 106 427 117T479 155T513 223T525 328V415Z"  />
<glyph unicode="P" horiz-adv-x="673" d="M48 0V107L99 111V632L48 637V743Q180 749 316 749Q384 749 443 741T547 707T617 636T643 516V505Q643 430 618 384T549 312T448 277T325 268H235V111L286 106V0H48ZM506 516Q506 553 495 575T460 610T403 627T323 631H235V387Q256 386 278 386T323 386Q369 386 403 391T460 409T494 445T506 505V516Z"  />
<glyph unicode="Q" horiz-adv-x="717" d="M664 326Q664 172 600 90T423 -9V-52Q423 -65 425 -73T434 -85T453 -91T485 -93H569V-180Q552 -185 515 -190T439 -195Q406 -195 379 -189T332 -168T302 -125T291 -54V-9Q178 8 116 90T53 326V416Q53 506 74 571T135 677T231 738T358 758Q428 758 484 739T581 678T642 571T664 416V326ZM525 416Q525 478 513 520T480 588T427 625T358 637Q320 637 290 626T237 588T204 520T192 416V326Q192 264 204 222T237 155T289 118T358 106Q396 106 427 117T479 154T513 222T525 326V416Z"  />
<glyph unicode="R" horiz-adv-x="728" d="M48 0V106L99 111V632L48 637V743Q111 745 178 746T315 748Q382 748 441 740T545 706T616 635T642 516V509Q642 424 608 377T514 304L634 110L689 106V0H532L373 274Q360 273 346 273T318 273H235V111L286 106V0H48ZM505 514Q505 550 494 573T459 609T401 626T318 631Q296 631 277 631T235 630V386Q256 385 277 385T320 385Q416 385 460 411T505 508V514Z"  />
<glyph unicode="S" horiz-adv-x="619" d="M567 201Q567 92 500 39T305 -15Q269 -15 233 -13T166 -8T109 -1T70 7V172H162L172 103Q188 102 201 102T228 101T261 100T305 99Q365 99 396 121T428 194Q428 230 408 252T333 300L216 352Q178 369 148 388T96 431T64 486T52 562Q52 665 119 711T319 758Q354 758 388 756T452 750T505 742T542 734V576H450L438 642Q411 644 381 644T327 645Q260 645 225 629T189 566Q189 532 209 511T284 466L400 415Q442 397 473 377T525 332T556 275T567 201Z"  />
<glyph unicode="T" horiz-adv-x="669" d="M537 568L527 627H404V109L455 104V0H214V104L264 109V627H142L132 568H42V743H626V568H537Z"  />
<glyph unicode="U" horiz-adv-x="782" d="M733 743V637L683 632V304Q683 143 608 64T391 -15Q248 -15 174 64T99 304V632L48 637V743H288V637L237 632V311Q237 255 244 216T270 151T317 115T391 104Q435 104 464 115T512 151T537 215T545 311V632L494 637V743H733Z"  />
<glyph unicode="V" horiz-adv-x="777" d="M738 743V637L686 632L490 0H284L88 632L38 637V743H278V637L237 633L356 228Q366 196 374 161T387 95H389Q394 125 401 160T419 228L538 633L497 637V743H738Z"  />
<glyph unicode="W" horiz-adv-x="1004" d="M966 743V637L916 632L804 0H621L527 363Q520 389 513 419T503 475H500Q496 449 490 420T476 364L383 0H200L88 632L37 637V743H269V637L228 633L285 294Q291 256 295 221T305 150H310Q315 183 320 217T336 286L420 593H585L669 284Q679 249 684 216T695 150H699Q704 185 708 220T720 294L776 633L735 637V743H966Z"  />
<glyph unicode="X" horiz-adv-x="727" d="M530 0L357 257L187 0H38V106L95 111L274 376L100 631L44 637V743H199L372 486L539 743H684V637L628 632L450 372L629 111L688 106V0H530Z"  />
<glyph unicode="Y" horiz-adv-x="674" d="M587 632L405 285V110L456 105V0H216V105L268 110V284L85 632L38 637V743H179L288 528Q301 502 313 473T336 417H338Q347 442 360 472T387 528L496 743H635V637L587 632Z"  />
<glyph unicode="Z" horiz-adv-x="640" d="M52 0V127L418 626H164L154 567H65V743H576V616L211 117H487L498 181H588V0H52Z"  />
<glyph unicode="[" horiz-adv-x="425" d="M100 -204V743H370V633H231V-95H370V-204H100Z"  />
<glyph unicode="\" horiz-adv-x="480" d="M320 0L29 743H160L451 0H320Z"  />
<glyph unicode="]" horiz-adv-x="425" d="M54 -204V-95H193V634H54V743H325V-204H54Z"  />
<glyph unicode="^" horiz-adv-x="715" d="M487 423L357 686L227 423H96L257 746H457L618 423H487Z"  />
<glyph unicode="_" horiz-adv-x="597" d="M4 -126V-47H593V-126H4Z"  />
<glyph unicode="`" horiz-adv-x="476" d="M210 626L52 774H206L337 626H210Z"  />
<glyph unicode="a" horiz-adv-x="609" d="M393 0V37Q367 19 322 3T216 -14Q137 -14 94 25T50 146V168Q50 224 69 257T124 309T208 332T316 338H383V372Q383 402 379 421T362 450T326 465T266 469Q229 469 189 466L180 416H89V547Q98 550 117 555T163 565T222 573T288 577Q355 577 399 565T469 529T505 465T516 372V110L565 105V0H393ZM387 256H316Q280 256 254 253T211 241T186 216T178 172V147Q178 108 200 95T257 81Q299 81 335 93T387 115V256Z"  />
<glyph unicode="b" horiz-adv-x="614" d="M561 250Q561 179 545 129T495 47T412 1T296 -14Q268 -14 244 -13T193 -11T137 -6T69 1V669L19 674V778H201V552Q232 566 267 572T334 578Q452 578 506 518T561 328V250ZM429 329Q429 367 424 393T405 436T370 459T316 466Q307 466 293 465T263 462T231 456T201 445V102Q218 101 242 100T298 98Q332 98 357 105T398 130T421 177T429 250V329Z"  />
<glyph unicode="c" horiz-adv-x="516" d="M466 7Q446 1 402 -6T292 -14Q170 -14 113 52T55 246V318Q55 447 112 512T292 577Q355 577 401 570T466 556V414H377L368 463Q355 465 339 465T313 465Q283 465 260 459T220 437T196 392T187 318V246Q187 201 195 172T220 127T260 104T314 98Q338 98 375 99T466 106V7H466Z"  />
<glyph unicode="d" horiz-adv-x="641" d="M423 0V29Q394 11 355 -1T265 -14Q166 -14 111 47T55 237V317Q55 392 72 442T122 522T199 564T298 577Q330 577 358 574T415 566V680L359 685V777H547V110L597 105V0H423ZM416 457Q387 462 359 464T311 467Q281 467 258 462T219 440T195 395T187 317V237Q187 162 213 130T301 97Q333 97 361 104T416 122V457Z"  />
<glyph unicode="e" horiz-adv-x="610" d="M184 240V231Q184 200 188 175T207 132T251 105T333 95Q355 95 382 96T436 99T490 103T536 108V10Q505 2 452 -6T327 -14Q251 -14 199 1T114 49T67 133T52 255V302Q52 441 116 509T306 577Q376 577 424 556T503 496T546 406T560 291V240H184ZM429 335Q429 359 425 383T409 427T372 459T306 471Q266 471 242 459T206 428T189 384T185 335V327H429V335Z"  />
<glyph unicode="f" horiz-adv-x="450" d="M268 458V110L317 105V0H86V105L136 110V458L36 466V563H136V617Q136 656 142 688T166 743T214 779T293 792Q328 792 359 787T414 777V692Q372 695 326 695Q305 695 294 691T277 677T270 652T268 615V563H412V458H268Z"  />
<glyph unicode="g" horiz-adv-x="615" d="M566 -38Q566 -131 502 -175T302 -219Q167 -219 106 -176T45 -41Q45 -9 58 21T97 75Q74 90 63 111T52 159Q52 186 64 209T102 248Q58 292 58 382Q58 424 68 459T105 521T181 562T305 577H570V497L515 487Q524 476 536 450T548 382Q548 279 486 233T302 186Q228 186 180 203Q159 187 159 168Q159 149 170 144T208 138H302Q364 138 413 132T496 107T548 54T566 -38ZM438 -40Q438 -15 432 1T411 27T370 39T302 43H201Q188 32 180 12T171 -40Q171 -62 176 -78T195 -104T234 -120T302 -126Q342 -126 368 -121T410 -105T432 -78T438 -40ZM420 382Q420 405 416 423T399 454T363 473T302 480Q264 480 241 473T206 453T190 422T186 382Q186 359 190 341T207 310T242 290T302 283Q339 283 362 290T398 309T415 340T420 382Z"  />
<glyph unicode="h" horiz-adv-x="678" d="M452 0V355Q452 388 449 409T435 443T408 461T363 466Q323 466 286 453T225 429V110L275 105V0H44V105L93 110V668L44 673V777H225V529Q254 545 300 561T400 577Q460 577 496 562T551 519T577 449T584 357V110L634 105V0H452Z"  />
<glyph unicode="i" horiz-adv-x="319" d="M44 0V105L93 110V453L44 458V563H226V110L275 105V0H44ZM91 650V777H228V650H91Z"  />
<glyph unicode="j" horiz-adv-x="297" d="M229 -46Q229 -95 221 -128T193 -181T143 -210T68 -219Q43 -219 19 -217T-15 -212V-118Q-3 -119 11 -119T43 -119Q60 -119 70 -116T87 -104T95 -82T97 -46V453L47 458V563H229V-46ZM94 650V777H231V650H94Z"  />
<glyph unicode="k" horiz-adv-x="614" d="M424 0L225 268V0H44V105L93 110V668L44 673V777H225V312L425 563H569V458L502 452L361 294L511 111L570 105V0H424Z"  />
<glyph unicode="l" horiz-adv-x="319" d="M44 0V105L93 110V668L44 673V777H225V110L275 105V0H44Z"  />
<glyph unicode="m" horiz-adv-x="954" d="M728 0V369Q728 392 727 410T719 441T698 461T657 468Q632 468 601 459T540 433Q542 416 542 400T543 369V0H411V369Q411 393 410 411T403 442T383 461T345 468Q315 468 283 456T225 431V110L275 105V0H44V105L93 110V453L44 458V563H220V518Q255 545 297 561T388 577Q439 577 469 561T516 516Q564 549 608 563T691 577Q750 577 784 559T835 512T856 446T860 371V110L910 105V0H728Z"  />
<glyph unicode="n" horiz-adv-x="678" d="M452 0V357Q452 387 449 408T437 442T413 460T373 466Q344 466 307 456T225 428V110L275 105V0H44V105L93 110V453L44 458V563H220V518Q266 544 311 560T405 577Q465 577 500 561T554 515T578 446T584 357V110L634 105V0H452Z"  />
<glyph unicode="o" horiz-adv-x="617" d="M563 247Q563 114 498 50T308 -14Q185 -14 120 50T54 247V316Q54 449 119 513T308 577Q433 577 498 514T563 316V247ZM431 316Q431 397 402 431T308 465Q244 465 215 431T186 316V247Q186 166 215 132T308 98Q372 98 401 132T431 247V316Z"  />
<glyph unicode="p" horiz-adv-x="639" d="M586 246Q586 173 568 123T517 43T438 -1T337 -14Q310 -14 279 -11T225 -2V-95L274 -100V-205H44V-100L93 -95V453L44 458V563H217V526Q255 553 297 565T382 577Q429 577 467 563T531 519T572 442T586 326V246ZM454 326Q454 405 428 435T346 465Q318 465 292 459T224 434V108Q253 103 279 100T329 96Q359 96 382 102T421 124T445 170T454 246V326Z"  />
<glyph unicode="q" horiz-adv-x="612" d="M406 -96V15Q367 -2 331 -8T260 -14Q150 -14 98 45T45 237V316Q45 392 62 442T113 523T198 565T316 577Q343 577 367 577T416 574T470 569T537 562V-96L587 -101V-206H357V-101L406 -96ZM405 461Q388 462 360 463T313 464Q278 464 253 460T211 440T186 395T177 316V237Q177 199 182 173T199 130T230 106T279 98Q299 98 331 103T405 122V461Z"  />
<glyph unicode="r" horiz-adv-x="446" d="M411 456Q360 456 309 447T225 423V110L275 105V0H44V105L93 110V453L44 458V563H218V517Q260 552 309 564T411 577V456H411Z"  />
<glyph unicode="s" horiz-adv-x="525" d="M477 153Q477 115 465 84T426 31T356 -2T249 -14Q219 -14 189 -12T133 -6T86 1T57 8V147H149L158 91Q180 89 201 89T249 88Q305 88 325 103T346 147Q346 162 342 172T327 191T297 209T247 232L206 249Q166 265 137 282T88 320T58 366T48 425Q48 509 105 543T275 577Q301 577 329 575T382 570T427 562T458 555V426H367L357 473Q337 475 314 475T276 476Q224 476 201 467T178 428Q178 415 181 405T195 387T221 370T264 350L309 331Q356 311 388 294T440 256T468 211T477 153Z"  />
<glyph unicode="t" horiz-adv-x="467" d="M418 1Q412 -1 401 -3T374 -8T341 -12T304 -14Q262 -14 233 -6T185 22T158 72T149 147V458L44 466V563H149V703H281V563H418V458H281V149Q281 129 282 117T289 99T304 90T333 87Q355 87 380 88T418 91V1H418Z"  />
<glyph unicode="u" horiz-adv-x="678" d="M457 0V45Q407 18 360 2T262 -14Q207 -14 174 4T123 52T99 121T93 205V453L44 458V563H225V205Q225 175 228 155T241 121T265 103T306 97Q334 97 370 107T452 135V453L403 458V563H584V110L634 105V0H457Z"  />
<glyph unicode="v" horiz-adv-x="653" d="M562 451L417 0H233L88 451L39 458V563H194L286 242Q297 202 307 164T326 89H328Q336 125 346 163T368 242L459 563H612V458L562 451Z"  />
<glyph unicode="w" horiz-adv-x="952" d="M909 563V458L860 452L760 0H592L501 278Q490 313 484 337T475 385H472Q468 362 463 338T446 278L354 0H187L87 452L38 458V563H258V464L217 459L257 259Q265 218 271 187T282 124H288Q296 156 303 188T322 258L401 494H549L628 258Q641 220 648 188T663 124H668L694 259L733 459L692 464V563H909Z"  />
<glyph unicode="x" horiz-adv-x="634" d="M444 0L307 184L178 0H43V105L102 111L230 291L110 452L49 458V563H197L326 387L447 563H580V458L520 452L401 285L530 111L590 105V0H444Z"  />
<glyph unicode="y" horiz-adv-x="671" d="M573 453L410 -20Q393 -70 376 -107T335 -168T278 -205T197 -218Q157 -218 122 -214T65 -205V-111Q100 -113 121 -113T168 -113Q190 -113 204 -109T228 -94T245 -66T262 -21L270 4L98 453L39 458V563H207L299 276Q311 238 321 201T340 126H342Q347 164 357 201T378 273L462 563H631V458L573 453Z"  />
<glyph unicode="z" horiz-adv-x="531" d="M48 0V118L336 457H153L144 414H59V563H482V447L193 105H389L399 158H483V0H48Z"  />
<glyph unicode="{" horiz-adv-x="442" d="M321 -205Q258 -205 218 -196T155 -167T123 -114T114 -36V116Q114 140 111 156T101 185T82 206T52 227V310Q70 321 81 331T100 353T111 381T114 422V574Q114 621 122 653T154 705T218 734T321 743H384V634H322Q296 634 281 632T258 624T248 605T246 574V422Q246 392 242 369T228 328T205 296T171 269Q211 243 228 210T246 116V-36Q246 -56 248 -67T258 -85T281 -94T322 -96H385V-205H321Z"  />
<glyph unicode="|" horiz-adv-x="330" d="M99 -205V743H231V-205H99Z"  />
<glyph unicode="}" horiz-adv-x="442" d="M390 227Q372 216 360 207T341 185T330 157T327 116V-36Q327 -82 319 -114T287 -166T224 -196T121 -205H56V-96H119Q145 -96 160 -94T183 -86T193 -68T196 -36V116Q196 176 213 209T271 269Q251 282 237 296T213 328T200 369T196 422V574Q196 593 194 605T183 623T160 632T119 634H58V743H121Q184 743 224 734T287 705T318 653T327 574V422Q327 398 330 382T340 353T360 331T390 310V227H390Z"  />
<glyph unicode="~" horiz-adv-x="703" d="M600 485Q600 409 570 369T468 329Q444 329 415 335T356 364L298 407Q264 432 238 432Q213 432 206 418T198 373V336H102V373Q102 453 136 491T234 530Q263 530 288 522T342 493L401 451Q418 439 432 432T467 424Q492 424 498 441T505 485V522H600V485H600Z"  />
<glyph unicode="&#xA0;" horiz-adv-x="196" />
<glyph unicode="&#xA1;" horiz-adv-x="286" d="M70 -213L83 353H203L215 -213H70ZM210 411H75V565H210V411Z"  />
<glyph unicode="&#xA2;" horiz-adv-x="541" d="M467 7Q454 3 421 -3T345 -11V-120H233V-7Q143 10 100 74T56 250V314Q56 424 99 488T233 570V682H345V575Q389 572 422 566T467 556V415H379L370 464Q358 465 344 465T316 465Q285 465 262 459T222 437T197 391T188 314V250Q188 203 196 174T221 127T261 104T316 98Q342 98 380 99T467 105V7H467Z"  />
<glyph unicode="&#xA3;" horiz-adv-x="645" d="M91 0V95Q118 121 128 152T138 212V332H61V436H138V499Q138 565 149 614T188 695T263 743T381 759Q446 759 499 752T585 737V573H492L481 639Q464 641 442 641T398 642Q357 642 333 635T295 612T278 568T274 500V436H503V332H274V212Q274 157 243 112H585V0H91Z"  />
<glyph unicode="&#xA4;" horiz-adv-x="662" d="M523 117L446 192Q392 161 332 161Q270 161 217 192L139 116L70 185L148 263Q132 289 124 318T116 376Q116 405 123 433T148 488L69 566L139 635L217 558Q243 575 273 582T332 590Q362 590 391 583T447 558L524 634L593 564L516 488Q532 462 541 434T550 376Q550 316 516 262L593 186L523 117ZM460 376Q460 406 450 429T422 468T381 493T332 502Q306 502 283 494T243 469T215 429T205 376Q205 346 215 323T243 284T283 259T332 250Q357 250 380 258T421 283T449 323T460 376Z"  />
<glyph unicode="&#xA5;" horiz-adv-x="703" d="M419 219V94L469 89V0H230V89L282 94V219H50V308H272L221 400H51V489H176L94 640L42 646V743H193L301 528Q314 502 327 474T350 417H352Q362 445 374 473T400 528L509 743H661V646L607 640L525 489H650V400H480L428 308H650V219H419Z"  />
<glyph unicode="&#xA6;" horiz-adv-x="330" d="M99 -205V187H231V-205H99ZM99 351V743H231V351H99Z"  />
<glyph unicode="&#xA7;" horiz-adv-x="668" d="M591 -8Q591 -108 526 -163T317 -218Q288 -218 256 -216T194 -211T138 -204T95 -196V-31H187L196 -101Q219 -102 252 -104T317 -106Q393 -106 422 -81T451 -13Q451 6 448 21T432 51T396 80T331 111L218 157Q138 190 107 238T75 354Q75 387 82 413T105 464Q91 484 84 511T77 567Q77 664 140 710T341 757Q377 757 411 755T475 748T528 740T565 733V576H472L463 641Q436 643 406 643T346 644Q308 644 283 639T242 624T221 599T214 563Q214 548 217 535T230 510T258 487T306 463L425 415Q474 395 506 374T557 327T584 274T592 214Q592 186 585 156T560 100Q577 73 584 43T591 -8ZM473 189Q473 212 471 229T459 261T431 287T380 312L257 362Q228 374 213 383T187 400V375Q187 348 188 331T198 302T222 279T269 257L371 216Q410 200 433 189T473 167V189Z"  />
<glyph unicode="&#xA8;" horiz-adv-x="487" d="M309 644V768H420V644H309ZM179 644H68V768H179V644Z"  />
<glyph unicode="&#xA9;" horiz-adv-x="856" d="M786 375Q786 285 759 215T684 98T570 25T426 0Q348 0 282 25T168 97T93 215T66 375Q66 465 93 535T168 652T282 725T426 750Q504 750 570 725T684 653T759 535T786 375ZM705 375Q705 446 685 501T627 595T539 654T426 674Q364 674 313 654T225 596T168 502T148 375Q148 304 168 249T225 155T313 96T426 75Q487 75 538 95T627 154T684 248T705 375ZM548 172Q539 169 526 167T498 164T466 161T434 160Q340 160 294 208T247 348V403Q247 494 293 542T434 590Q449 590 465 589T498 587T527 583T548 578V472H486L479 507Q469 508 461 508T441 508Q387 508 368 485T348 403V348Q348 290 367 266T441 242Q452 242 460 242T479 243L486 279H548V172Z"  />
<glyph unicode="&#xAA;" horiz-adv-x="450" d="M281 421V445Q264 434 233 423T163 412Q115 412 85 437T54 513V525Q54 561 68 582T106 614T163 628T232 631H273V648Q273 665 271 676T260 693T238 701T200 704Q188 704 177 704T152 702L146 674H81V760Q96 765 134 772T219 780Q263 780 292 773T339 749T364 708T372 648V499L401 496V421H281ZM277 575H233Q187 575 168 568T149 529V516Q149 493 163 488T197 482Q221 482 244 489T277 501V575Z"  />
<glyph unicode="&#xAB;" horiz-adv-x="505" d="M348 66L238 281L348 497H466L359 281L466 66H348ZM269 66H151L41 281L151 497H269L163 281L269 66Z"  />
<glyph unicode="&#xAC;" horiz-adv-x="690" d="M473 206V458H110V569H578V206H473Z"  />
<glyph unicode="&#xAD;" horiz-adv-x="390" d="M68 242V346H322V242H68Z"  />
<glyph unicode="&#xAE;" horiz-adv-x="679" d="M610 475Q610 409 591 356T536 265T450 207T338 186Q276 186 226 206T140 264T85 355T66 475Q66 541 85 594T139 685T225 743T338 764Q400 764 450 744T535 686T590 595T610 475ZM543 475Q543 581 489 641T338 701Q242 701 188 641T133 475Q133 368 187 309T338 249Q434 249 488 308T543 475ZM206 328V375L228 378V586L206 589V638Q236 640 263 640T320 640Q350 640 376 636T420 622T450 592T461 542V539Q461 504 446 483T402 452L452 380L481 376V328H402L330 439H298V378L320 375V328H206ZM390 542Q390 569 373 576T322 583H298V492H323Q358 492 374 501T390 539V542Z"  />
<glyph unicode="&#xAF;" horiz-adv-x="484" d="M54 654V743H430V654H54Z"  />
<glyph unicode="&#xB0;" horiz-adv-x="447" d="M396 590Q396 555 383 525T346 472T291 436T224 423Q188 423 157 436T102 471T66 524T52 590Q52 625 65 655T102 709T156 745T224 758Q260 758 291 745T345 709T382 656T396 590ZM314 590Q314 609 307 625T288 653T259 671T223 678Q205 678 189 672T160 653T140 625T133 590Q133 552 159 528T223 503Q261 503 287 527T314 590Z"  />
<glyph unicode="&#xB1;" horiz-adv-x="690" d="M91 0V95H598V0H91ZM397 375V179H295V375H89V485H295V681H397V485H601V375H397Z"  />
<glyph unicode="&#xB2;" horiz-adv-x="459" d="M58 301V357Q58 398 65 427T90 478T134 519T202 556Q232 571 250 581T277 600T288 617T291 638Q291 661 272 670T202 680Q189 680 171 680T135 677L130 638H65V739Q75 742 92 745T131 751T174 755T217 757Q311 757 354 730T397 641Q397 618 391 598T369 561T329 527T268 493Q234 477 213 466T181 444T166 420T162 387V382H319L324 419H390V301H58Z"  />
<glyph unicode="&#xB3;" horiz-adv-x="458" d="M393 425Q393 352 348 322T212 291Q189 291 166 293T123 298T86 304T60 311V413H125L130 371Q147 370 165 370T202 369Q247 369 268 380T289 430V439Q289 451 287 461T277 478T255 489T217 493H86V566H218Q241 566 255 570T276 581T286 599T289 621V627Q289 657 271 668T201 679Q184 679 166 679T132 677L126 638H61V739Q68 742 84 745T121 750T165 755T212 757Q300 757 346 730T393 634V628Q393 599 381 572T338 530Q369 516 381 490T393 435V425H393Z"  />
<glyph unicode="&#xB4;" horiz-adv-x="476" d="M256 626H129L261 774H414L256 626Z"  />
<glyph unicode="&#xB5;" horiz-adv-x="682" d="M46 -205V-100L95 -95V453L46 458V563H227V205Q227 175 230 155T243 121T267 103T308 97Q336 97 372 107T454 135V453L405 458V563H586V110L636 105V0H459V45Q420 23 376 8T286 -8Q271 -8 257 -7T227 0V-95L276 -100V-205H46Z"  />
<glyph unicode="&#xB6;" horiz-adv-x="749" d="M580 -197V649H519V-197H328V-99L424 -94V249H377Q310 249 253 259T153 297T87 371T63 491V501Q63 576 87 623T154 697T256 733T384 743H674V-197H580Z"  />
<glyph unicode="&#xB7;" horiz-adv-x="281" d="M76 291V446H204V291H76Z"  />
<glyph unicode="&#xB8;" horiz-adv-x="460" d="M193 -205H67L178 -64H327L193 -205Z"  />
<glyph unicode="&#xB9;" horiz-adv-x="420" d="M69 300V375L162 379V649L69 620V705L191 749H267V379L360 375V300H69Z"  />
<glyph unicode="&#xBA;" horiz-adv-x="455" d="M400 580Q400 492 356 452T227 412Q144 412 99 452T54 580V612Q54 700 99 740T227 780Q311 780 355 740T400 612V580ZM302 612Q302 660 285 680T227 700Q188 700 170 681T152 612V580Q152 531 169 512T227 492Q267 492 284 511T302 580V612Z"  />
<glyph unicode="&#xBB;" horiz-adv-x="505" d="M355 66H237L343 281L237 497H355L465 281L355 66ZM268 281L158 66H40L147 281L40 497H158L268 281Z"  />
<glyph unicode="&#xBC;" horiz-adv-x="976" d="M857 102V55L888 52V0H721V52L752 55V102H533V179L765 446H857V177H922V102H857ZM757 330L621 177H757V330ZM332 0H214L699 745H817L332 0ZM64 300V375L156 379V649L63 620V705L186 749H262V379L354 375V300H64Z"  />
<glyph unicode="&#xBD;" horiz-adv-x="1068" d="M667 0V56Q667 97 675 126T700 177T744 217T810 255Q838 269 855 279T883 298T896 316T899 336Q899 359 880 368T810 378Q797 378 779 378T744 376L738 336H673V438Q683 441 701 444T740 450T783 454T826 456Q920 456 962 429T1005 339Q1005 316 999 298T977 262T937 229T876 196Q842 180 821 169T789 145T774 120T770 86V81H927L933 118H998V0H667ZM332 0H214L699 745H817L332 0ZM64 300V375L156 379V649L63 620V705L186 749H262V379L354 375V300H64Z"  />
<glyph unicode="&#xBE;" horiz-adv-x="1029" d="M904 102V55L935 52V0H768V52L799 55V102H580V179L812 446H904V177H969V102H904ZM804 330L668 177H804V330ZM354 0H235L720 745H839L354 0ZM390 425Q390 352 345 322T208 291Q186 291 163 293T120 298T83 304T56 311V413H122L127 371Q144 370 162 370T198 369Q243 369 264 380T286 430V439Q286 451 284 461T274 478T252 489T214 493H82V566H214Q238 566 252 570T273 581T283 599T286 621V627Q286 657 268 668T198 679Q181 679 163 679T128 677L123 638H58V739Q65 742 81 745T118 750T162 755T208 757Q296 757 343 730T390 634V628Q390 599 378 572T334 530Q366 516 378 490T390 435V425Z"  />
<glyph unicode="&#xBF;" horiz-adv-x="539" d="M489 -196Q449 -209 399 -216T298 -224Q189 -224 132 -186T75 -58V-51Q75 -26 80 -3T96 43T128 91T178 145Q213 178 233 201T263 243T275 280T278 322V354H398V322Q398 290 396 265T384 216T358 168T310 113Q284 87 268 67T241 30T228 -2T224 -33V-40Q224 -80 251 -94T331 -108Q347 -108 359 -108T394 -106L404 -43H489V-196ZM271 412V566H404V412H271Z"  />
<glyph unicode="&#xC0;" horiz-adv-x="782" d="M38 0V106L88 111L255 632L203 637V743H494L691 111L743 106V0H503V105L540 108L509 209H271L239 108L275 105V0H38ZM421 528Q412 557 405 588T394 645H386Q381 619 375 588T359 528L297 323H483L421 528ZM360 795L202 943H356L487 795H360Z"  />
<glyph unicode="&#xC1;" horiz-adv-x="782" d="M38 0V106L88 111L255 632L203 637V743H494L691 111L743 106V0H503V105L540 108L509 209H271L239 108L275 105V0H38ZM421 528Q412 557 405 588T394 645H386Q381 619 375 588T359 528L297 323H483L421 528ZM412 795H285L417 943H570L412 795Z"  />
<glyph unicode="&#xC2;" horiz-adv-x="782" d="M38 0V106L88 111L255 632L203 637V743H494L691 111L743 106V0H503V105L540 108L509 209H271L239 108L275 105V0H38ZM421 528Q412 557 405 588T394 645H386Q381 619 375 588T359 528L297 323H483L421 528ZM486 795L390 886L295 795H174L309 943H473L607 795H486Z"  />
<glyph unicode="&#xC3;" horiz-adv-x="782" d="M38 0V106L88 111L255 632L203 637V743H494L691 111L743 106V0H503V105L540 108L509 209H271L239 108L275 105V0H38ZM421 528Q412 557 405 588T394 645H386Q381 619 375 588T359 528L297 323H483L421 528ZM595 920Q595 851 568 819T486 787Q460 787 437 793T387 818L334 853Q317 864 308 868T284 873Q264 873 258 860T251 820V792H167V820Q167 889 196 922T280 955Q300 955 323 949T372 926L425 891Q440 881 453 875T481 868Q501 868 506 881T512 920V949H595V920H595Z"  />
<glyph unicode="&#xC4;" horiz-adv-x="782" d="M38 0V106L88 111L255 632L203 637V743H494L691 111L743 106V0H503V105L540 108L509 209H271L239 108L275 105V0H38ZM421 528Q412 557 405 588T394 645H386Q381 619 375 588T359 528L297 323H483L421 528ZM455 802V926H566V802H455ZM325 802H214V926H325V802Z"  />
<glyph unicode="&#xC5;" horiz-adv-x="782" d="M38 0V106L88 111L255 632L203 637V743H494L691 111L743 106V0H503V105L540 108L509 209H271L239 108L275 105V0H38ZM421 528Q412 557 405 588T394 645H386Q381 619 375 588T359 528L297 323H483L421 528ZM519 881Q519 821 483 793T391 764Q335 764 298 793T260 881Q260 910 270 932T297 968T339 990T391 998Q446 998 482 969T519 881ZM446 881Q446 909 430 920T391 932Q367 932 351 921T335 881Q335 854 351 842T391 830Q414 830 430 842T446 881Z"  />
<glyph unicode="&#xC6;" horiz-adv-x="1023" d="M37 106L88 112L255 630L203 635V743H970V572H878L868 628H636V439H949V327H636V115H868L878 173H970V0H446V106L497 111V208H271L240 110L289 106V0H37V106ZM497 642H389Q382 616 375 588T360 532L297 322H497V642Z"  />
<glyph unicode="&#xC7;" horiz-adv-x="611" d="M557 4Q544 1 523 -2T475 -8T422 -13T370 -15Q298 -15 240 0T140 54T76 157T53 322V422Q53 521 75 586T139 689T239 743T370 758Q394 758 421 756T475 752T522 746T557 739V568H464L454 634Q436 635 417 635T379 636Q332 636 298 627T240 593T206 528T194 422V322Q194 258 205 217T240 151T297 116T379 106Q398 106 417 106T454 108L464 176H557V4ZM293 -205H167L278 -64H427L293 -205Z"  />
<glyph unicode="&#xC8;" horiz-adv-x="625" d="M48 0V106L98 111V632L48 637V743H572V572H479L470 628H238V439H550V327H238V115H469L479 173H572V0H48ZM297 795L139 943H293L424 795H297Z"  />
<glyph unicode="&#xC9;" horiz-adv-x="625" d="M48 0V106L98 111V632L48 637V743H572V572H479L470 628H238V439H550V327H238V115H469L479 173H572V0H48ZM371 795H244L376 943H529L371 795Z"  />
<glyph unicode="&#xCA;" horiz-adv-x="625" d="M48 0V106L98 111V632L48 637V743H572V572H479L470 628H238V439H550V327H238V115H469L479 173H572V0H48ZM420 795L324 886L229 795H108L243 943H407L541 795H420Z"  />
<glyph unicode="&#xCB;" horiz-adv-x="625" d="M48 0V106L98 111V632L48 637V743H572V572H479L470 628H238V439H550V327H238V115H469L479 173H572V0H48ZM397 803V927H508V803H397ZM267 803H156V927H267V803Z"  />
<glyph unicode="&#xCC;" horiz-adv-x="342" d="M50 0V106L101 111V632L50 637V743H291V637L241 632V111L291 106V0H50ZM141 795L-17 943H137L268 795H141Z"  />
<glyph unicode="&#xCD;" horiz-adv-x="342" d="M50 0V106L101 111V632L50 637V743H291V637L241 632V111L291 106V0H50ZM203 795H76L208 943H361L203 795Z"  />
<glyph unicode="&#xCE;" horiz-adv-x="342" d="M50 0V106L101 111V632L50 637V743H291V637L241 632V111L291 106V0H50ZM267 795L171 886L76 795H-45L90 943H254L388 795H267Z"  />
<glyph unicode="&#xCF;" horiz-adv-x="342" d="M50 0V106L101 111V632L50 637V743H291V637L241 632V111L291 106V0H50ZM237 803V927H348V803H237ZM107 803H-4V927H107V803Z"  />
<glyph unicode="&#xD0;" horiz-adv-x="731" d="M676 326Q676 244 657 182T597 78T490 15T333 -6Q262 -6 190 -4T49 1V108L101 115V328H49V438H101V629L49 636V743Q118 746 190 747T333 749Q513 749 594 666T676 420V326ZM537 420Q537 481 525 521T487 586T422 620T330 630H238V438H368V328H238V113H330Q383 113 422 123T486 158T524 224T537 326V420Z"  />
<glyph unicode="&#xD1;" horiz-adv-x="784" d="M736 743V637L685 632V0H523L280 446Q262 478 249 503T223 556H220Q223 523 224 486T226 415V111L277 106V0H48V106L98 111V632L48 637V743H259L502 307Q516 282 530 255T559 198H561Q559 233 558 270T556 340V632L505 637V743H736ZM612 925Q612 856 585 824T503 792Q477 792 454 798T404 823L351 858Q334 869 325 873T301 878Q281 878 275 865T268 825V797H184V825Q184 894 213 927T297 960Q317 960 340 954T389 931L442 896Q457 886 470 880T498 873Q518 873 523 886T529 925V954H612V925H612Z"  />
<glyph unicode="&#xD2;" horiz-adv-x="717" d="M664 328Q664 238 643 173T582 67T486 5T358 -15Q287 -15 231 5T135 66T74 173T53 328V415Q53 505 74 570T135 677T231 738T358 758Q428 758 485 739T581 677T642 570T664 415V328ZM525 415Q525 477 513 519T480 588T427 625T358 637Q320 637 290 626T237 588T204 520T192 415V328Q192 266 204 224T237 155T289 118T358 106Q396 106 427 117T479 155T513 223T525 328V415ZM332 795L174 943H328L459 795H332Z"  />
<glyph unicode="&#xD3;" horiz-adv-x="717" d="M664 328Q664 238 643 173T582 67T486 5T358 -15Q287 -15 231 5T135 66T74 173T53 328V415Q53 505 74 570T135 677T231 738T358 758Q428 758 485 739T581 677T642 570T664 415V328ZM525 415Q525 477 513 519T480 588T427 625T358 637Q320 637 290 626T237 588T204 520T192 415V328Q192 266 204 224T237 155T289 118T358 106Q396 106 427 117T479 155T513 223T525 328V415ZM387 795H260L392 943H545L387 795Z"  />
<glyph unicode="&#xD4;" horiz-adv-x="717" d="M664 328Q664 238 643 173T582 67T486 5T358 -15Q287 -15 231 5T135 66T74 173T53 328V415Q53 505 74 570T135 677T231 738T358 758Q428 758 485 739T581 677T642 570T664 415V328ZM525 415Q525 477 513 519T480 588T427 625T358 637Q320 637 290 626T237 588T204 520T192 415V328Q192 266 204 224T237 155T289 118T358 106Q396 106 427 117T479 155T513 223T525 328V415ZM454 795L358 886L263 795H142L277 943H441L575 795H454Z"  />
<glyph unicode="&#xD5;" horiz-adv-x="717" d="M664 328Q664 238 643 173T582 67T486 5T358 -15Q287 -15 231 5T135 66T74 173T53 328V415Q53 505 74 570T135 677T231 738T358 758Q428 758 485 739T581 677T642 570T664 415V328ZM525 415Q525 477 513 519T480 588T427 625T358 637Q320 637 290 626T237 588T204 520T192 415V328Q192 266 204 224T237 155T289 118T358 106Q396 106 427 117T479 155T513 223T525 328V415ZM572 925Q572 856 545 824T463 792Q437 792 414 798T364 823L311 858Q294 869 285 873T261 878Q241 878 235 865T228 825V797H144V825Q144 894 173 927T257 960Q277 960 300 954T349 931L402 896Q417 886 430 880T458 873Q478 873 483 886T489 925V954H572V925H572Z"  />
<glyph unicode="&#xD6;" horiz-adv-x="717" d="M664 328Q664 238 643 173T582 67T486 5T358 -15Q287 -15 231 5T135 66T74 173T53 328V415Q53 505 74 570T135 677T231 738T358 758Q428 758 485 739T581 677T642 570T664 415V328ZM525 415Q525 477 513 519T480 588T427 625T358 637Q320 637 290 626T237 588T204 520T192 415V328Q192 266 204 224T237 155T289 118T358 106Q396 106 427 117T479 155T513 223T525 328V415ZM424 803V927H535V803H424ZM294 803H183V927H294V803Z"  />
<glyph unicode="&#xD7;" horiz-adv-x="690" d="M496 167L347 311L197 165L127 240L277 387L127 533L197 608L347 462L497 607L568 532L418 386L567 241L496 167Z"  />
<glyph unicode="&#xD8;" horiz-adv-x="717" d="M664 328Q664 238 643 173T582 67T486 5T358 -15Q301 -15 254 -3T170 36L137 -10H31L109 98Q53 181 53 328V415Q53 505 74 570T135 677T231 738T358 758Q471 758 546 707L579 753H685L607 644Q634 603 649 547T664 415V328ZM525 415Q525 471 514 515L247 144Q268 124 296 115T358 106Q396 106 427 117T479 155T513 223T525 328V415ZM192 328Q192 268 202 228L468 599Q447 619 419 628T358 637Q320 637 290 626T237 588T204 520T192 415V328Z"  />
<glyph unicode="&#xD9;" horiz-adv-x="782" d="M733 743V637L683 632V304Q683 143 608 64T391 -15Q248 -15 174 64T99 304V632L48 637V743H288V637L237 632V311Q237 255 244 216T270 151T317 115T391 104Q435 104 464 115T512 151T537 215T545 311V632L494 637V743H733ZM360 795L202 943H356L487 795H360Z"  />
<glyph unicode="&#xDA;" horiz-adv-x="782" d="M733 743V637L683 632V304Q683 143 608 64T391 -15Q248 -15 174 64T99 304V632L48 637V743H288V637L237 632V311Q237 255 244 216T270 151T317 115T391 104Q435 104 464 115T512 151T537 215T545 311V632L494 637V743H733ZM432 795H305L437 943H590L432 795Z"  />
<glyph unicode="&#xDB;" horiz-adv-x="782" d="M733 743V637L683 632V304Q683 143 608 64T391 -15Q248 -15 174 64T99 304V632L48 637V743H288V637L237 632V311Q237 255 244 216T270 151T317 115T391 104Q435 104 464 115T512 151T537 215T545 311V632L494 637V743H733ZM486 795L390 886L295 795H174L309 943H473L607 795H486Z"  />
<glyph unicode="&#xDC;" horiz-adv-x="782" d="M733 743V637L683 632V304Q683 143 608 64T391 -15Q248 -15 174 64T99 304V632L48 637V743H288V637L237 632V311Q237 255 244 216T270 151T317 115T391 104Q435 104 464 115T512 151T537 215T545 311V632L494 637V743H733ZM456 803V927H567V803H456ZM326 803H215V927H326V803Z"  />
<glyph unicode="&#xDD;" horiz-adv-x="674" d="M587 632L405 285V110L456 105V0H216V105L268 110V284L85 632L38 637V743H179L288 528Q301 502 313 473T336 417H338Q347 442 360 472T387 528L496 743H635V637L587 632ZM374 795H247L379 943H532L374 795Z"  />
<glyph unicode="&#xDE;" horiz-adv-x="673" d="M643 408Q643 334 618 288T549 216T448 181T325 172Q302 172 280 172T235 173V0H48V106L99 111V632L48 637V743H235V653Q258 654 279 654T323 654Q389 654 447 645T548 611T617 540T643 420V408ZM506 421Q506 457 495 479T460 514T403 531T322 536Q300 536 278 536T235 535V291H323Q369 291 403 295T460 313T494 349T506 408V421Z"  />
<glyph unicode="&#xDF;" horiz-adv-x="676" d="M624 224Q624 171 610 129T567 55T494 8T389 -9Q365 -9 345 -8T301 -4V99H356Q429 99 461 130T494 228V237Q494 292 461 323T347 354H301V450H347Q385 450 411 458T452 481T474 517T481 564V570Q481 593 476 612T456 646T417 667T356 675Q319 675 294 667T252 638T229 585T222 504V0H40V106L90 111V504Q90 571 103 623T148 712T231 768T356 787Q427 787 475 770T553 723T596 655T609 574V568Q609 520 587 476T516 406Q571 382 597 336T624 234V224H624Z"  />
<glyph unicode="&#xE0;" horiz-adv-x="609" d="M393 0V37Q367 19 322 3T216 -14Q137 -14 94 25T50 146V168Q50 224 69 257T124 309T208 332T316 338H383V372Q383 402 379 421T362 450T326 465T266 469Q229 469 189 466L180 416H89V547Q98 550 117 555T163 565T222 573T288 577Q355 577 399 565T469 529T505 465T516 372V110L565 105V0H393ZM387 256H316Q280 256 254 253T211 241T186 216T178 172V147Q178 108 200 95T257 81Q299 81 335 93T387 115V256ZM270 626L112 774H266L397 626H270Z"  />
<glyph unicode="&#xE1;" horiz-adv-x="609" d="M393 0V37Q367 19 322 3T216 -14Q137 -14 94 25T50 146V168Q50 224 69 257T124 309T208 332T316 338H383V372Q383 402 379 421T362 450T326 465T266 469Q229 469 189 466L180 416H89V547Q98 550 117 555T163 565T222 573T288 577Q355 577 399 565T469 529T505 465T516 372V110L565 105V0H393ZM387 256H316Q280 256 254 253T211 241T186 216T178 172V147Q178 108 200 95T257 81Q299 81 335 93T387 115V256ZM346 626H219L351 774H504L346 626Z"  />
<glyph unicode="&#xE2;" horiz-adv-x="609" d="M393 0V37Q367 19 322 3T216 -14Q137 -14 94 25T50 146V168Q50 224 69 257T124 309T208 332T316 338H383V372Q383 402 379 421T362 450T326 465T266 469Q229 469 189 466L180 416H89V547Q98 550 117 555T163 565T222 573T288 577Q355 577 399 565T469 529T505 465T516 372V110L565 105V0H393ZM387 256H316Q280 256 254 253T211 241T186 216T178 172V147Q178 108 200 95T257 81Q299 81 335 93T387 115V256ZM389 626L293 717L198 626H77L212 774H376L510 626H389Z"  />
<glyph unicode="&#xE3;" horiz-adv-x="609" d="M393 0V37Q367 19 322 3T216 -14Q137 -14 94 25T50 146V168Q50 224 69 257T124 309T208 332T316 338H383V372Q383 402 379 421T362 450T326 465T266 469Q229 469 189 466L180 416H89V547Q98 550 117 555T163 565T222 573T288 577Q355 577 399 565T469 529T505 465T516 372V110L565 105V0H393ZM387 256H316Q280 256 254 253T211 241T186 216T178 172V147Q178 108 200 95T257 81Q299 81 335 93T387 115V256ZM518 755Q518 686 491 654T409 622Q383 622 360 628T310 653L257 688Q240 699 231 703T207 708Q187 708 181 695T174 655V627H90V655Q90 724 119 757T203 790Q223 790 246 784T295 761L348 726Q363 716 376 710T404 703Q424 703 429 716T435 755V784H518V755H518Z"  />
<glyph unicode="&#xE4;" horiz-adv-x="609" d="M393 0V37Q367 19 322 3T216 -14Q137 -14 94 25T50 146V168Q50 224 69 257T124 309T208 332T316 338H383V372Q383 402 379 421T362 450T326 465T266 469Q229 469 189 466L180 416H89V547Q98 550 117 555T163 565T222 573T288 577Q355 577 399 565T469 529T505 465T516 372V110L565 105V0H393ZM387 256H316Q280 256 254 253T211 241T186 216T178 172V147Q178 108 200 95T257 81Q299 81 335 93T387 115V256ZM357 644V768H468V644H357ZM227 644H116V768H227V644Z"  />
<glyph unicode="&#xE5;" horiz-adv-x="609" d="M393 0V37Q367 19 322 3T216 -14Q137 -14 94 25T50 146V168Q50 224 69 257T124 309T208 332T316 338H383V372Q383 402 379 421T362 450T326 465T266 469Q229 469 189 466L180 416H89V547Q98 550 117 555T163 565T222 573T288 577Q355 577 399 565T469 529T505 465T516 372V110L565 105V0H393ZM387 256H316Q280 256 254 253T211 241T186 216T178 172V147Q178 108 200 95T257 81Q299 81 335 93T387 115V256ZM433 728Q433 668 397 640T305 611Q249 611 212 640T174 728Q174 757 184 779T211 815T253 837T305 845Q360 845 396 816T433 728ZM360 728Q360 756 344 767T305 779Q281 779 265 768T249 728Q249 701 265 689T305 677Q328 677 344 689T360 728Z"  />
<glyph unicode="&#xE6;" horiz-adv-x="938" d="M517 240V231Q517 200 520 175T539 131T584 102T666 91Q719 91 772 95T870 105V9Q838 1 781 -6T657 -14Q505 -14 444 54Q391 16 338 1T218 -14Q139 -14 96 25T53 146V168Q53 224 72 257T126 309T210 332T318 338H386V372Q386 402 381 421T363 450T328 465T270 469Q250 469 230 469T191 466L182 416H91V547Q100 550 119 555T165 565T224 573T290 577Q329 577 358 573T408 562T444 545T470 522Q499 546 539 561T640 577Q710 577 758 555T837 496T880 407T894 297V240H517ZM762 335Q762 359 758 383T742 427T705 459T640 471Q600 471 576 459T539 428T522 384T518 335V327H762V335ZM388 256H318Q282 256 256 253T214 241T189 216T181 172V147Q181 108 202 95T259 81Q280 81 299 84T336 93T367 104T388 115V256Z"  />
<glyph unicode="&#xE7;" horiz-adv-x="516" d="M466 7Q446 1 402 -6T292 -14Q170 -14 113 52T55 246V318Q55 447 112 512T292 577Q355 577 401 570T466 556V414H377L368 463Q355 465 339 465T313 465Q283 465 260 459T220 437T196 392T187 318V246Q187 201 195 172T220 127T260 104T314 98Q338 98 375 99T466 106V7ZM242 -205H116L227 -64H376L242 -205Z"  />
<glyph unicode="&#xE8;" horiz-adv-x="610" d="M184 240V231Q184 200 188 175T207 132T251 105T333 95Q355 95 382 96T436 99T490 103T536 108V10Q505 2 452 -6T327 -14Q251 -14 199 1T114 49T67 133T52 255V302Q52 441 116 509T306 577Q376 577 424 556T503 496T546 406T560 291V240H184ZM429 335Q429 359 425 383T409 427T372 459T306 471Q266 471 242 459T206 428T189 384T185 335V327H429V335ZM284 626L126 774H280L411 626H284Z"  />
<glyph unicode="&#xE9;" horiz-adv-x="610" d="M184 240V231Q184 200 188 175T207 132T251 105T333 95Q355 95 382 96T436 99T490 103T536 108V10Q505 2 452 -6T327 -14Q251 -14 199 1T114 49T67 133T52 255V302Q52 441 116 509T306 577Q376 577 424 556T503 496T546 406T560 291V240H184ZM429 335Q429 359 425 383T409 427T372 459T306 471Q266 471 242 459T206 428T189 384T185 335V327H429V335ZM344 626H217L349 774H502L344 626Z"  />
<glyph unicode="&#xEA;" horiz-adv-x="610" d="M184 240V231Q184 200 188 175T207 132T251 105T333 95Q355 95 382 96T436 99T490 103T536 108V10Q505 2 452 -6T327 -14Q251 -14 199 1T114 49T67 133T52 255V302Q52 441 116 509T306 577Q376 577 424 556T503 496T546 406T560 291V240H184ZM429 335Q429 359 425 383T409 427T372 459T306 471Q266 471 242 459T206 428T189 384T185 335V327H429V335ZM408 626L312 717L217 626H96L231 774H395L529 626H408Z"  />
<glyph unicode="&#xEB;" horiz-adv-x="610" d="M184 240V231Q184 200 188 175T207 132T251 105T333 95Q355 95 382 96T436 99T490 103T536 108V10Q505 2 452 -6T327 -14Q251 -14 199 1T114 49T67 133T52 255V302Q52 441 116 509T306 577Q376 577 424 556T503 496T546 406T560 291V240H184ZM429 335Q429 359 425 383T409 427T372 459T306 471Q266 471 242 459T206 428T189 384T185 335V327H429V335ZM369 644V768H480V644H369ZM239 644H128V768H239V644Z"  />
<glyph unicode="&#xEC;" horiz-adv-x="319" d="M44 0V105L93 110V453L44 458V563H226V110L275 105V0H44ZM115 626L-43 774H111L242 626H115Z"  />
<glyph unicode="&#xED;" horiz-adv-x="319" d="M44 0V105L93 110V453L44 458V563H226V110L275 105V0H44ZM181 626H54L186 774H339L181 626Z"  />
<glyph unicode="&#xEE;" horiz-adv-x="319" d="M44 0V105L93 110V453L44 458V563H226V110L275 105V0H44ZM247 626L151 717L56 626H-65L70 774H234L368 626H247Z"  />
<glyph unicode="&#xEF;" horiz-adv-x="319" d="M44 0V105L93 110V453L44 458V563H226V110L275 105V0H44ZM217 644V768H328V644H217ZM87 644H-24V768H87V644Z"  />
<glyph unicode="&#xF0;" horiz-adv-x="617" d="M562 257Q562 119 498 53T308 -13Q182 -13 118 50T54 245V300Q54 435 119 497T307 560Q334 560 358 555T403 539Q385 580 356 610T283 659L158 576L118 623L208 685Q158 696 104 696H77V785Q88 786 102 786T143 787Q177 787 218 780T298 760L375 814L416 767L366 731Q467 676 514 567T562 316V257ZM430 306Q430 383 401 415T308 448Q244 448 215 415T185 302V245Q185 165 214 132T308 98Q372 98 401 131T430 245V306Z"  />
<glyph unicode="&#xF1;" horiz-adv-x="678" d="M452 0V357Q452 387 449 408T437 442T413 460T373 466Q344 466 307 456T225 428V110L275 105V0H44V105L93 110V453L44 458V563H220V518Q266 544 311 560T405 577Q465 577 500 561T554 515T578 446T584 357V110L634 105V0H452ZM544 756Q544 687 517 655T435 623Q409 623 386 629T336 654L283 689Q266 700 257 704T233 709Q213 709 207 696T200 656V628H116V656Q116 725 145 758T229 791Q249 791 272 785T321 762L374 727Q389 717 402 711T430 704Q450 704 455 717T461 756V785H544V756H544Z"  />
<glyph unicode="&#xF2;" horiz-adv-x="617" d="M563 247Q563 114 498 50T308 -14Q185 -14 120 50T54 247V316Q54 449 119 513T308 577Q433 577 498 514T563 316V247ZM431 316Q431 397 402 431T308 465Q244 465 215 431T186 316V247Q186 166 215 132T308 98Q372 98 401 132T431 247V316ZM280 626L122 774H276L407 626H280Z"  />
<glyph unicode="&#xF3;" horiz-adv-x="617" d="M563 247Q563 114 498 50T308 -14Q185 -14 120 50T54 247V316Q54 449 119 513T308 577Q433 577 498 514T563 316V247ZM431 316Q431 397 402 431T308 465Q244 465 215 431T186 316V247Q186 166 215 132T308 98Q372 98 401 132T431 247V316ZM333 626H206L338 774H491L333 626Z"  />
<glyph unicode="&#xF4;" horiz-adv-x="617" d="M563 247Q563 114 498 50T308 -14Q185 -14 120 50T54 247V316Q54 449 119 513T308 577Q433 577 498 514T563 316V247ZM431 316Q431 397 402 431T308 465Q244 465 215 431T186 316V247Q186 166 215 132T308 98Q372 98 401 132T431 247V316ZM403 626L307 717L212 626H91L226 774H390L524 626H403Z"  />
<glyph unicode="&#xF5;" horiz-adv-x="617" d="M563 247Q563 114 498 50T308 -14Q185 -14 120 50T54 247V316Q54 449 119 513T308 577Q433 577 498 514T563 316V247ZM431 316Q431 397 402 431T308 465Q244 465 215 431T186 316V247Q186 166 215 132T308 98Q372 98 401 132T431 247V316ZM523 755Q523 686 496 654T414 622Q388 622 365 628T315 653L262 688Q245 699 236 703T212 708Q192 708 186 695T179 655V627H95V655Q95 724 124 757T208 790Q228 790 251 784T300 761L353 726Q368 716 381 710T409 703Q429 703 434 716T440 755V784H523V755H523Z"  />
<glyph unicode="&#xF6;" horiz-adv-x="617" d="M563 247Q563 114 498 50T308 -14Q185 -14 120 50T54 247V316Q54 449 119 513T308 577Q433 577 498 514T563 316V247ZM431 316Q431 397 402 431T308 465Q244 465 215 431T186 316V247Q186 166 215 132T308 98Q372 98 401 132T431 247V316ZM375 644V768H486V644H375ZM245 644H134V768H245V644Z"  />
<glyph unicode="&#xF7;" horiz-adv-x="690" d="M279 91V237H410V91H279ZM590 333H98V443H590V333ZM279 537V682H410V537H279Z"  />
<glyph unicode="&#xF8;" horiz-adv-x="617" d="M521 484Q563 421 563 316V247Q563 114 498 50T308 -14Q223 -14 166 16L134 -26H21L98 75Q54 139 54 247V316Q54 449 119 513T308 577Q395 577 454 545L488 589H601L521 484ZM186 247Q186 218 189 196L381 448Q354 465 308 465Q244 465 215 431T186 316V247ZM431 316Q431 341 428 361L239 112Q264 98 308 98Q372 98 401 132T431 247V316Z"  />
<glyph unicode="&#xF9;" horiz-adv-x="678" d="M457 0V45Q407 18 360 2T262 -14Q207 -14 174 4T123 52T99 121T93 205V453L44 458V563H225V205Q225 175 228 155T241 121T265 103T306 97Q334 97 370 107T452 135V453L403 458V563H584V110L634 105V0H457ZM296 626L138 774H292L423 626H296Z"  />
<glyph unicode="&#xFA;" horiz-adv-x="678" d="M457 0V45Q407 18 360 2T262 -14Q207 -14 174 4T123 52T99 121T93 205V453L44 458V563H225V205Q225 175 228 155T241 121T265 103T306 97Q334 97 370 107T452 135V453L403 458V563H584V110L634 105V0H457ZM370 626H243L375 774H528L370 626Z"  />
<glyph unicode="&#xFB;" horiz-adv-x="678" d="M457 0V45Q407 18 360 2T262 -14Q207 -14 174 4T123 52T99 121T93 205V453L44 458V563H225V205Q225 175 228 155T241 121T265 103T306 97Q334 97 370 107T452 135V453L403 458V563H584V110L634 105V0H457ZM430 626L334 717L239 626H118L253 774H417L551 626H430Z"  />
<glyph unicode="&#xFC;" horiz-adv-x="678" d="M457 0V45Q407 18 360 2T262 -14Q207 -14 174 4T123 52T99 121T93 205V453L44 458V563H225V205Q225 175 228 155T241 121T265 103T306 97Q334 97 370 107T452 135V453L403 458V563H584V110L634 105V0H457ZM398 644V768H509V644H398ZM268 644H157V768H268V644Z"  />
<glyph unicode="&#xFD;" horiz-adv-x="671" d="M573 453L410 -20Q393 -70 376 -107T335 -168T278 -205T197 -218Q157 -218 122 -214T65 -205V-111Q100 -113 121 -113T168 -113Q190 -113 204 -109T228 -94T245 -66T262 -21L270 4L98 453L39 458V563H207L299 276Q311 238 321 201T340 126H342Q347 164 357 201T378 273L462 563H631V458L573 453ZM378 626H251L383 774H536L378 626Z"  />
<glyph unicode="&#xFE;" horiz-adv-x="639" d="M586 248Q586 175 568 125T517 44T439 0T338 -14Q311 -14 283 -11T226 -2V-95L276 -100V-205H44V-100L94 -95V667L44 672V777H217V527Q258 553 297 565T379 577Q428 577 466 563T531 518T572 439T586 322V248ZM454 322Q454 401 428 433T346 465Q319 465 292 459T225 434V107Q253 102 281 99T329 96Q359 96 382 102T421 126T445 172T454 248V322Z"  />
<glyph unicode="&#xFF;" horiz-adv-x="671" d="M573 453L410 -20Q393 -70 376 -107T335 -168T278 -205T197 -218Q157 -218 122 -214T65 -205V-111Q100 -113 121 -113T168 -113Q190 -113 204 -109T228 -94T245 -66T262 -21L270 4L98 453L39 458V563H207L299 276Q311 238 321 201T340 126H342Q347 164 357 201T378 273L462 563H631V458L573 453ZM407 644V768H518V644H407ZM277 644H166V768H277V644Z"  />
<glyph unicode="&#x131;" horiz-adv-x="319" d="M44 0V105L93 110V453L44 458V563H226V110L275 105V0H44Z"  />
<glyph unicode="&#x152;" horiz-adv-x="1020" d="M516 0Q477 -6 444 -10T365 -15Q294 -15 238 4T142 65T81 171T60 326V416Q60 506 81 571T141 677T237 738T364 758Q407 758 442 754T516 743H948V572H855L845 628H614V439H926V327H614V115H845L855 173H948V0H516ZM477 628Q460 630 446 632T420 635T395 636T370 637Q330 637 299 626T245 588T210 520T198 416V326Q198 264 210 222T244 154T298 117T370 105Q383 105 394 105T418 106T444 108T477 113V628Z"  />
<glyph unicode="&#x153;" horiz-adv-x="990" d="M561 240V231Q561 200 564 175T583 131T628 102T710 91Q763 91 816 95T914 105V9Q882 1 825 -6T700 -14Q621 -14 572 4T494 53Q432 -14 307 -14Q184 -14 119 50T53 247V316Q53 449 118 513T307 577Q435 577 496 508Q557 577 684 577Q754 577 802 555T881 496T924 407T937 297V240H561ZM806 335Q806 359 802 383T786 427T749 459T684 471Q645 471 621 460T584 430T567 390T562 347V327H806V335ZM430 316Q430 397 401 431T307 466Q243 466 214 432T184 316V247Q184 166 213 132T307 97Q371 97 400 131T430 247V316Z"  />
<glyph unicode="&#x160;" horiz-adv-x="619" d="M567 201Q567 92 500 39T305 -15Q269 -15 233 -13T166 -8T109 -1T70 7V172H162L172 103Q188 102 201 102T228 101T261 100T305 99Q365 99 396 121T428 194Q428 230 408 252T333 300L216 352Q178 369 148 388T96 431T64 486T52 562Q52 665 119 711T319 758Q354 758 388 756T452 750T505 742T542 734V576H450L438 642Q411 644 381 644T327 645Q260 645 225 629T189 566Q189 532 209 511T284 466L400 415Q442 397 473 377T525 332T556 275T567 201ZM388 795H224L89 943H210L305 853L401 943H522L388 795Z"  />
<glyph unicode="&#x161;" horiz-adv-x="525" d="M477 153Q477 115 465 84T426 31T356 -2T249 -14Q219 -14 189 -12T133 -6T86 1T57 8V147H149L158 91Q180 89 201 89T249 88Q305 88 325 103T346 147Q346 162 342 172T327 191T297 209T247 232L206 249Q166 265 137 282T88 320T58 366T48 425Q48 509 105 543T275 577Q301 577 329 575T382 570T427 562T458 555V426H367L357 473Q337 475 314 475T276 476Q224 476 201 467T178 428Q178 415 181 405T195 387T221 370T264 350L309 331Q356 311 388 294T440 256T468 211T477 153ZM345 626H181L46 774H167L262 684L358 774H479L345 626Z"  />
<glyph unicode="&#x178;" horiz-adv-x="674" d="M587 632L405 285V110L456 105V0H216V105L268 110V284L85 632L38 637V743H179L288 528Q301 502 313 473T336 417H338Q347 442 360 472T387 528L496 743H635V637L587 632ZM402 808V932H513V808H402ZM272 808H161V932H272V808Z"  />
<glyph unicode="&#x17D;" horiz-adv-x="640" d="M52 0V127L418 626H164L154 567H65V743H576V616L211 117H487L498 181H588V0H52ZM418 795H254L119 943H240L335 853L431 943H552L418 795Z"  />
<glyph unicode="&#x17E;" horiz-adv-x="531" d="M48 0V118L336 457H153L144 414H59V563H482V447L193 105H389L399 158H483V0H48ZM357 626H193L58 774H179L274 684L370 774H491L357 626Z"  />
<glyph unicode="&#x192;" horiz-adv-x="654" d="M588 658Q563 660 547 660T515 661Q497 661 484 659T460 649T444 626T434 587L413 444H574L560 340H398L353 13Q346 -36 331 -68T292 -118T239 -144T175 -152Q137 -152 109 -148T57 -138L67 -52Q90 -54 108 -55T144 -56Q160 -56 172 -54T195 -44T211 -22T222 19L267 340H122L136 444H281L302 592Q309 641 325 673T364 724T418 750T485 758Q519 758 547 754T598 744L588 658Z"  />
<glyph unicode="&#x2C6;" horiz-adv-x="505" d="M348 626L252 717L157 626H36L171 774H335L469 626H348Z"  />
<glyph unicode="&#x2DC;" horiz-adv-x="491" d="M462 755Q462 686 435 654T353 622Q327 622 304 628T254 653L201 688Q184 699 175 703T151 708Q131 708 125 695T118 655V627H34V655Q34 724 63 757T147 790Q167 790 190 784T239 761L292 726Q307 716 320 710T348 703Q368 703 373 716T379 755V784H462V755H462Z"  />
<glyph unicode="&#x2013;" horiz-adv-x="494" d="M68 242V346H426V242H68Z"  />
<glyph unicode="&#x2014;" horiz-adv-x="651" d="M68 242V346H583V242H68Z"  />
<glyph unicode="&#x2018;" horiz-adv-x="220" d="M146 532H20L105 777H200L146 532Z"  />
<glyph unicode="&#x2019;" horiz-adv-x="220" d="M116 532H20L75 777H200L116 532Z"  />
<glyph unicode="&#x201A;" horiz-adv-x="220" d="M116 -97H20L75 148H200L116 -97Z"  />
<glyph unicode="&#x201C;" horiz-adv-x="430" d="M356 532H230L315 777H410L356 532ZM146 532H20L105 777H200L146 532Z"  />
<glyph unicode="&#x201D;" horiz-adv-x="430" d="M325 532H230L284 777H410L325 532ZM116 532H20L75 777H200L116 532Z"  />
<glyph unicode="&#x201E;" horiz-adv-x="430" d="M325 -97H230L284 148H410L325 -97ZM200 148L116 -97H20L75 148H200Z"  />
<glyph unicode="&#x2020;" horiz-adv-x="528" d="M325 463V-130H194V463H70V575H194V777H325V575H458V463H325Z"  />
<glyph unicode="&#x2021;" horiz-adv-x="528" d="M325 235V-130H194V235H70V346H194V468H70V580H194V774H325V580H458V468H325V346H458V235H325Z"  />
<glyph unicode="&#x2022;" horiz-adv-x="527" d="M448 368Q448 330 434 297T394 239T336 200T263 186Q225 186 192 200T133 239T94 297T79 368Q79 406 93 439T133 497T191 536T263 551Q302 551 335 537T394 498T433 440T448 368Z"  />
<glyph unicode="&#x2026;" horiz-adv-x="886" d="M678 0V154H811V0H678ZM510 0H377V154H510V0ZM75 0V154H208V0H75Z"  />
<glyph unicode="&#x2030;" horiz-adv-x="1542" d="M1487 198Q1487 95 1440 42T1301 -11Q1208 -11 1161 42T1114 198V242Q1114 451 1301 451Q1393 451 1440 399T1487 242V198ZM1382 243Q1382 280 1376 304T1359 342T1333 361T1300 366Q1283 366 1268 361T1242 342T1225 304T1219 243V198Q1219 160 1225 136T1242 99T1268 80T1300 74Q1318 74 1333 79T1359 98T1376 136T1382 198V243ZM1056 198Q1056 95 1010 42T870 -11Q777 -11 730 42T683 198V242Q683 451 870 451Q1056 451 1056 242V198ZM951 243Q951 280 945 304T928 342T903 361T870 366Q852 366 838 361T812 342T795 304T789 243V198Q789 160 795 136T812 99T837 80T870 74Q888 74 902 79T928 98T945 136T951 198V243ZM370 0H252L737 745H855L370 0ZM426 504Q426 456 416 418T385 352T328 310T241 295Q190 295 155 310T97 353T65 419T55 504V548Q55 594 65 632T97 699T154 742T241 757Q292 757 327 742T384 700T416 635T426 548V504ZM322 548Q322 584 317 608T303 647T278 667T241 673Q199 673 180 646T160 548V504Q160 468 165 444T179 405T204 385T241 379Q262 379 277 385T302 405T317 443T322 504V548Z"  />
<glyph unicode="&#x2039;" horiz-adv-x="308" d="M149 66L40 281L149 497H267L162 281L267 66H149Z"  />
<glyph unicode="&#x203A;" horiz-adv-x="308" d="M158 66H40L146 281L40 497H158L267 281L158 66Z"  />
<glyph unicode="&#x20AC;" horiz-adv-x="681" d="M616 4Q602 0 582 -3T536 -9T485 -13T435 -15Q379 -15 328 -5T236 35T166 117T127 254H58V325H121Q119 348 119 371T120 417H58V488H126Q136 572 163 625T231 707T322 747T429 758Q455 758 482 757T535 752T582 746T616 739V579H525L515 635Q498 636 480 636T444 637Q411 637 383 633T332 613T293 568T269 488H582L563 417H262Q260 394 260 371T263 325H535L516 254H271Q279 203 295 174T335 129T387 110T449 105Q464 105 484 106T527 108T573 111T616 115V4H616Z"  />
<glyph unicode="&#x2122;" horiz-adv-x="935" d="M759 410V543Q759 581 762 616H761Q754 603 746 588T730 560L675 479H616L563 560Q555 571 547 587T531 616H530Q531 599 531 580T532 543V410L564 406V341H406V406L438 410V678L406 681V747H539L620 617Q628 605 633 594T645 571H646Q653 583 658 594T671 617L753 747H887V681L854 678V410L887 406V341H727V406L759 410ZM321 639L314 672H259V410L291 406V341H129V406L161 410V672H106L99 639H43V747H377V639H321Z"  />

</font>
</defs>
</svg>
