<?xml  version="1.0" encoding="UTF-8"?>
<!DOCTYPE svg PUBLIC "-//W3C//DTD SVG 1.0//EN" "http://www.w3.org/TR/2001/REC-SVG-20010904/DTD/svg10.dtd" >
<svg xmlns="http://www.w3.org/2000/svg" >
<metadata>
<version>1.0</version>
<id><![CDATA[Soho W01 Regular]]></id>
<vendor>Monotype Imaging Inc.</vendor>
<credits>
<name>Fonts.com WebFonts</name>
<URL>http://webfonts.fonts.com</URL>
<role>Home of the Web fonts</role>
</credits>
<license>
<URL>http://webfonts.fonts.com/Legal</URL>
</license>
<copyright><![CDATA[Copyright (c) 2007 Monotype Imaging Inc. Soho is designed by Sebastian Lester. All rights reserved.]]></copyright>
<trademark><![CDATA[Soho is a trademark of Monotype Imaging, Inc and may be registered in certain jurisdictions.]]></trademark>
<licensee>
<name></name>
</licensee>
</metadata>
<defs >
<font horiz-adv-x="576" id="65f5646e-8635-4832-984d-6d7a63606157">
<font-face font-family="" panose-1="2 4 5 3 3 5 6 2 2 4" ascent="775" descent="-225" units-per-em="1000" alphabetic="0">
</font-face>
<missing-glyph horiz-adv-x="0" />

<glyph unicode="&#xA;" />
<glyph unicode="&#xD;" horiz-adv-x="0" />
<glyph unicode=" " horiz-adv-x="191" />
<glyph unicode="!" horiz-adv-x="251" d="M80 0V135H171V0H80ZM165 193H87L77 774H174L165 193Z"  />
<glyph unicode="&quot;" horiz-adv-x="338" d="M282 519H215L227 759H318L282 519ZM123 759L87 519H20L32 759H123Z"  />
<glyph unicode="#" horiz-adv-x="741" d="M512 197L490 0H410L431 197H263L242 0H161L183 197H84V274H191L211 461H84V537H220L243 743H323L301 537H468L492 743H572L550 537H656V461H541L521 274H656V197H512ZM292 461L272 274H440L460 461H292Z"  />
<glyph unicode="$" horiz-adv-x="620" d="M547 188Q547 105 498 54T351 -8V-120H264V-12Q235 -11 208 -9T157 -3T116 3T89 8V156H160L170 71Q193 69 225 68T298 67Q375 67 414 96T454 188Q454 232 433 261T353 317L225 374Q151 407 112 452T72 575Q72 731 264 751V855H351V754Q409 752 456 746T521 735V592H450L439 670Q411 672 382 673T320 675Q245 675 206 654T166 575Q166 534 186 506T266 451L394 395Q468 363 507 315T547 188Z"  />
<glyph unicode="%" horiz-adv-x="1068" d="M1009 194Q1009 93 964 42T833 -10Q748 -10 703 41T657 194V251Q657 352 702 403T833 454Q918 454 963 403T1009 251V194ZM929 251Q929 291 922 317T901 359T871 380T833 386Q813 386 796 380T765 359T745 318T737 251V194Q737 153 744 127T765 86T795 64T833 58Q853 58 870 64T901 85T921 127T929 194V251ZM340 0H250L724 743H814L340 0ZM409 494Q409 449 400 411T370 346T316 304T234 289Q185 289 152 304T97 348T67 413T58 494V549Q58 593 67 630T97 695T151 738T234 754Q282 754 315 739T370 697T400 633T409 549V494ZM329 549Q329 626 306 656T234 686Q185 686 162 655T138 549V494Q138 417 161 387T234 357Q283 357 306 387T329 494V549Z"  />
<glyph unicode="&amp;" horiz-adv-x="739" d="M521 56Q483 24 429 5T302 -14Q253 -14 209 -4T132 29T80 88T60 178V185Q60 250 93 294T198 381L191 389Q168 413 149 435T116 480T95 529T87 587V591Q87 635 102 666T146 717T215 746T304 755Q326 755 353 754T407 751T461 745T511 735V592H440L429 671Q399 674 369 674T308 675Q250 675 215 659T180 591V587Q180 566 184 550T199 516T226 479T268 434L520 181Q539 219 546 266T554 366L499 372V441H694V372L639 366Q639 300 625 237T579 122L685 16V0H577L521 56ZM301 64Q356 64 396 76T465 112L255 324Q228 309 209 296T178 266T160 231T154 185V178Q154 147 166 125T198 90T245 70T301 64Z"  />
<glyph unicode="&apos;" horiz-adv-x="143" d="M87 519H20L32 759H123L87 519Z"  />
<glyph unicode="(" horiz-adv-x="356" d="M230 -207Q204 -175 176 -129T124 -23T85 109T70 264V271Q70 355 85 427T123 558T175 664T230 743H317Q282 695 253 644T204 536T172 413T160 271V264Q160 187 171 122T203 0T253 -108T317 -207H230Z"  />
<glyph unicode=")" horiz-adv-x="356" d="M285 264Q285 181 270 109T232 -22T180 -128T126 -207H38Q74 -159 103 -109T152 -1T184 122T196 264V271Q196 347 185 412T153 535T103 644T38 743H126Q152 711 180 665T231 559T270 427T285 271V264H285Z"  />
<glyph unicode="*" horiz-adv-x="532" d="M394 578Q377 573 359 568T320 559Q334 545 346 531T369 502L412 443L349 397L306 456Q295 471 285 487T265 520Q256 503 246 487T225 457L183 397L119 443L162 503Q172 517 184 531T210 560Q191 564 173 569T138 579L68 601L92 676L162 653Q179 648 197 641T232 626Q230 645 229 664T227 700V774H305V700Q305 663 299 624Q317 633 335 640T370 652L440 676L464 601L394 578Z"  />
<glyph unicode="+" horiz-adv-x="702" d="M388 354V139H315V354H100V427H315V642H388V427H601V354H388Z"  />
<glyph unicode="&#x2c;" horiz-adv-x="277" d="M107 -89H25L118 138H223L107 -89Z"  />
<glyph unicode="-" horiz-adv-x="396" d="M74 255V330H321V255H74Z"  />
<glyph unicode="." horiz-adv-x="252" d="M81 0V138H171V0H81Z"  />
<glyph unicode="/" horiz-adv-x="411" d="M97 0H10L315 743H401L97 0Z"  />
<glyph unicode="0" horiz-adv-x="638" d="M580 299Q580 143 512 65T319 -14Q194 -14 126 64T58 299V442Q58 599 126 677T319 755Q444 755 512 677T580 442V299ZM488 442Q488 508 476 553T441 625T387 664T319 676Q283 676 252 664T199 625T163 553T150 442V299Q150 233 163 188T198 116T252 77T319 65Q356 65 387 77T440 116T475 188T488 299V442Z"  />
<glyph unicode="1" horiz-adv-x="559" d="M62 0V75L235 81V655L61 599V679L259 749H326V81L498 75V0H62Z"  />
<glyph unicode="2" horiz-adv-x="590" d="M64 0V94Q64 155 76 199T116 278T186 343T291 406Q337 431 366 451T412 490T435 530T441 575Q441 632 403 654T272 676Q248 676 215 675T153 671L143 592H73V732Q77 733 96 736T145 744T208 751T277 755Q407 755 470 713T533 575Q533 540 524 510T494 452T435 396T342 338Q283 306 247 281T190 230T162 171T154 95V81H443L454 156H524V0H64Z"  />
<glyph unicode="3" horiz-adv-x="597" d="M538 201Q538 140 521 99T470 33T388 -3T278 -14Q247 -14 216 -11T157 -4T108 5T75 12V155H146L156 70Q183 68 213 67T277 65Q319 65 350 70T403 91T435 132T446 201V226Q446 251 442 273T426 311T388 336T321 346H106V423H321Q363 423 388 433T425 460T442 499T446 547V560Q446 593 438 615T411 650T358 670T276 676Q247 676 216 675T159 672L149 592H78V733Q83 734 103 737T151 745T213 752T278 755Q344 755 392 745T473 713T522 653T538 560V547Q538 497 518 453T448 385Q498 360 518 319T538 226V201H538Z"  />
<glyph unicode="4" horiz-adv-x="653" d="M491 196V78L545 73V0H345V73L399 78V196H47V290L386 743H491V276H604V196H491ZM399 619L139 276H399V619Z"  />
<glyph unicode="5" horiz-adv-x="585" d="M527 207Q527 87 458 37T256 -14Q221 -14 188 -11T128 -4T80 4T51 10V155H122L132 71Q161 69 191 67T254 65Q304 65 338 72T395 96T426 140T436 207V236Q436 273 428 298T400 340T345 363T254 370H66L98 743H500V592H430L420 661H176L157 449H258Q399 449 463 399T527 236V207H527Z"  />
<glyph unicode="6" horiz-adv-x="631" d="M572 221Q572 145 546 99T481 27T399 -6T323 -14Q273 -14 226 -6T141 33T81 122T58 281V474Q58 542 72 594T118 682T204 736T336 755Q369 755 401 753T460 747T507 739T539 733V592H468L458 672Q431 674 400 675T338 676Q273 676 236 662T180 621T155 557T150 474V439Q168 444 191 448T237 456T283 460T324 462Q371 462 415 455T495 427T551 367T572 263V221ZM480 259Q480 301 469 326T438 365T388 383T320 388Q290 388 244 384T150 369V276Q150 211 162 170T196 106T251 74T323 65Q354 65 382 74T433 101T467 149T480 221V259Z"  />
<glyph unicode="7" d="M209 0H106L447 661H132L123 592H52V743H533V645L209 0Z"  />
<glyph unicode="8" horiz-adv-x="654" d="M591 214Q591 132 568 87T507 19T422 -9T328 -14H325Q278 -14 231 -9T147 18T86 86T62 214V222Q62 285 82 323T143 386Q107 408 86 445T65 542V553Q65 617 88 656T148 718T231 747T325 755H328Q375 755 421 748T505 718T565 657T588 553V542Q588 483 567 446T510 386Q550 361 570 323T591 222V214ZM499 222Q499 286 477 316T394 347H259Q199 347 177 317T154 222V214Q154 163 166 134T202 89T256 70T325 65H328Q365 65 396 69T451 89T486 133T499 214V222ZM497 553Q497 593 484 617T449 655T395 672T328 676H325Q289 676 258 672T205 655T169 618T156 553V542Q156 487 177 456T259 425H394Q454 425 475 456T497 542V553Z"  />
<glyph unicode="9" horiz-adv-x="631" d="M572 268Q572 200 558 148T512 60T427 6T294 -13Q261 -13 230 -11T171 -5T122 3T91 9V151H161L172 70Q198 68 230 67T292 66Q356 66 393 80T450 121T475 185T480 268V303Q462 298 440 294T394 286T347 282T306 280Q259 280 215 287T136 315T80 375T58 479V521Q58 597 84 643T150 715T232 748T308 756Q358 756 405 748T490 709T549 620T572 461V268ZM480 466Q480 531 468 572T434 636T380 668T308 677Q276 677 248 668T197 641T163 593T150 521V483Q150 441 161 416T192 377T242 359T310 354Q341 354 386 358T480 373V466Z"  />
<glyph unicode=":" horiz-adv-x="258" d="M83 0V138H174V0H83ZM174 412H83V550H174V412Z"  />
<glyph unicode=";" horiz-adv-x="268" d="M78 -89H-1L92 138H196L78 -89ZM93 412V550H184V412H93Z"  />
<glyph unicode="&lt;" horiz-adv-x="702" d="M434 139L144 391L434 642H557L266 391L557 139H434Z"  />
<glyph unicode="=" horiz-adv-x="702" d="M127 244V318H574V244H127ZM127 464V539H574V464H127Z"  />
<glyph unicode="&gt;" horiz-adv-x="702" d="M266 139H144L434 391L144 642H266L557 391L266 139Z"  />
<glyph unicode="?" horiz-adv-x="497" d="M142 0V138H232V0H142ZM230 193H142V235Q142 267 145 293T158 344T188 396T241 456Q270 484 288 505T317 545T332 580T336 616V624Q336 675 304 691T212 708Q193 708 174 708T137 706L125 630H55V764Q92 774 136 780T220 787Q320 787 374 750T429 624V616Q429 592 424 570T407 525T375 476T325 421Q291 387 272 364T244 320T232 281T230 235V193Z"  />
<glyph unicode="@" horiz-adv-x="834" d="M779 368Q779 300 762 243T703 143T593 78T424 54Q319 54 272 91T225 204Q225 210 225 219T226 239T227 261T229 280Q234 342 250 382T290 445T348 478T420 487Q464 487 505 482T583 467L550 138Q634 157 671 217T708 369Q708 485 646 540T452 596Q384 596 331 581T239 530T175 439T135 302Q130 271 127 237T123 164Q123 118 134 79T174 11T251 -34T375 -51Q405 -51 435 -50T490 -47T533 -44T553 -42V-92Q546 -93 529 -95T487 -100T434 -105T376 -107Q287 -107 226 -87T127 -31T71 54T54 164Q54 203 57 240T66 309Q81 402 112 468T191 575T304 636T452 656Q618 656 698 581T779 368ZM491 409Q477 411 457 412T421 413Q400 413 382 409T349 391T325 350T312 278Q310 247 309 231T308 204Q308 157 334 140T422 123Q435 123 443 123T464 124L491 409Z"  />
<glyph unicode="A" horiz-adv-x="739" d="M35 0V73L90 78L281 664L223 669V743H434L652 78L704 73V0H502V73L554 77L502 243H236L183 77L235 73V0H35ZM404 544Q394 574 387 603T374 666H364Q357 633 351 604T334 544L263 327H474L404 544Z"  />
<glyph unicode="B" horiz-adv-x="658" d="M603 209Q603 142 580 101T515 38T417 8T295 0H50V74L104 81V661L50 668V743H300Q368 743 423 736T517 709T577 651T599 552V543Q599 519 593 496T575 451T544 412T498 383Q553 362 578 318T603 220V209ZM510 220Q510 247 503 270T476 310T426 336T345 346H196V81H295Q346 81 386 85T453 103T495 142T510 209V220ZM506 552Q506 591 492 612T452 645T388 658T300 661H196V425H345Q393 425 424 433T474 457T499 495T506 543V552Z"  />
<glyph unicode="C" horiz-adv-x="584" d="M527 3Q516 1 497 -2T455 -7T406 -12T355 -14Q291 -14 237 0T142 50T78 149T55 310V433Q55 531 78 593T141 692T236 741T355 755Q380 755 406 753T455 749T497 743T527 738V592H455L445 670Q423 671 401 672T355 673Q302 673 263 661T199 622T160 548T147 433V310Q147 241 160 195T198 121T263 81T355 69Q378 69 400 69T445 71L455 151H527V3H527Z"  />
<glyph unicode="D" horiz-adv-x="696" d="M638 312Q638 241 621 184T565 85T464 22T312 0H50V73L104 81V661L50 669V743H312Q399 743 460 721T561 659T619 561T638 433V312ZM545 433Q545 496 530 539T485 610T409 649T304 661H196V81H304Q364 81 409 93T484 133T530 205T545 312V433Z"  />
<glyph unicode="E" horiz-adv-x="599" d="M50 0V73L104 78V664L50 669V743H544V592H472L462 661H196V427H523V344H196V81H462L472 152H544V0H50Z"  />
<glyph unicode="F" horiz-adv-x="589" d="M196 344V78L250 73V0H50V73L104 78V664L50 669V743H544V592H472L462 661H196V427H523V344H196Z"  />
<glyph unicode="G" horiz-adv-x="634" d="M569 7Q546 2 487 -6T350 -14Q288 -14 234 1T141 53T78 151T55 306V437Q55 535 80 597T148 694T243 742T351 755Q391 755 429 753T496 747T545 740T569 736V592H497L486 668Q462 670 429 671T364 673Q317 673 277 665T209 631T164 560T148 437V306Q148 235 162 190T203 118T271 81T362 70Q394 70 424 70T477 73V306L371 314V386H569V7H569Z"  />
<glyph unicode="H" horiz-adv-x="764" d="M514 0V73L568 78V351H196V78L250 73V0H50V73L104 78V664L50 669V743H250V670L196 665V434H568V665L514 670V743H714V669L660 664V78L714 73V0H514Z"  />
<glyph unicode="I" horiz-adv-x="305" d="M52 0V73L106 78V664L52 669V743H252V669L198 664V78L252 73V0H52Z"  />
<glyph unicode="J" horiz-adv-x="300" d="M193 664V-60Q193 -101 186 -131T161 -180T114 -209T40 -219Q21 -219 -2 -217T-34 -211V-142H34Q57 -142 70 -138T91 -124T100 -99T102 -60V664L48 669V743H247V669L193 664Z"  />
<glyph unicode="K" horiz-adv-x="667" d="M507 0L196 358V78L250 73V0H50V73L104 78V664L50 669V743H250V670L196 665V394L515 743H622V669L563 665L300 377L566 77L622 73V0H507Z"  />
<glyph unicode="L" horiz-adv-x="578" d="M50 0V73L104 78V664L50 669V743H250V669L196 664V81H454L464 153H536V0H50Z"  />
<glyph unicode="M" horiz-adv-x="851" d="M602 0V73L656 78V483Q656 523 657 553T661 621H659Q646 590 633 563T606 507L481 240H368L246 507Q233 536 220 564T193 621H191Q192 583 193 554T195 483V78L249 73V0H50V73L104 78V664L50 669V743H225L379 408Q390 384 401 358T423 308H425Q436 333 448 359T471 410L627 743H801V669L747 664V78L801 73V0H602Z"  />
<glyph unicode="N" horiz-adv-x="744" d="M640 664V0H509L247 533Q233 561 217 593T187 659H185Q187 622 188 583T190 504V78L244 73V0H50V73L104 78V664L50 669V743H236L495 224Q509 197 525 162T555 97H557Q554 142 553 183T552 260V665L498 670V743H694V669L640 664Z"  />
<glyph unicode="O" horiz-adv-x="684" d="M629 318Q629 158 556 72T342 -14Q202 -14 129 72T55 318V424Q55 584 128 669T342 755Q482 755 555 670T629 424V318ZM536 424Q536 492 522 539T482 616T421 659T342 673Q299 673 264 660T203 617T163 540T148 424V318Q148 250 162 203T202 125T263 82T342 68Q385 68 420 81T481 125T521 202T536 318V424Z"  />
<glyph unicode="P" horiz-adv-x="639" d="M589 511Q589 441 566 398T501 330T404 298T284 289H196V78L250 73V0H50V73L104 78V664L50 669V743H284Q348 743 403 735T500 703T565 636T589 524V511ZM496 524Q496 568 483 595T443 636T376 656T284 661H196V370H284Q337 370 376 375T442 396T482 438T496 511V524Z"  />
<glyph unicode="Q" horiz-adv-x="684" d="M629 318Q629 172 567 88T387 -11V-66Q387 -81 389 -90T399 -105T419 -113T454 -115H539V-178Q528 -180 495 -184T428 -188Q399 -188 375 -184T333 -166T307 -129T297 -66V-11Q179 3 117 87T55 318V424Q55 584 128 669T342 755Q482 755 555 670T629 424V318ZM536 424Q536 492 522 539T482 616T421 659T342 673Q299 673 264 660T203 617T163 540T148 424V318Q148 250 162 203T202 125T263 82T342 68Q385 68 420 81T481 125T521 202T536 318V424Z"  />
<glyph unicode="R" horiz-adv-x="680" d="M527 0L352 290Q337 289 318 289T282 289H196V78L250 73V0H50V73L104 78V664L50 669V743H279Q343 743 399 735T498 702T564 635T589 523V516Q589 427 552 379T450 309L589 77L645 73V0H527ZM496 523Q496 567 483 594T442 636T374 656T279 661H196V370H282Q336 370 376 376T443 399T483 444T496 516V523Z"  />
<glyph unicode="S" horiz-adv-x="585" d="M530 188Q530 91 469 39T284 -14Q250 -14 217 -12T155 -6T104 0T72 7V155H142L153 69Q222 66 284 66Q360 66 398 94T436 188Q436 232 415 261T335 317L208 374Q134 407 95 452T55 575Q55 667 115 711T298 755Q331 755 363 753T423 748T472 742T503 735V592H433L420 671Q391 673 359 674T301 675Q227 675 188 654T148 575Q148 554 152 537T168 505T199 477T248 451L376 395Q415 378 444 358T492 313T520 258T530 188Z"  />
<glyph unicode="T" horiz-adv-x="634" d="M521 592L511 661H363V76L417 71V0H217V71L271 76V661H122L113 592H42V743H592V592H521Z"  />
<glyph unicode="U" horiz-adv-x="747" d="M643 665V309Q643 -14 374 -14Q104 -14 104 309V665L50 670V743H250V670L196 665V319Q196 251 204 204T234 126T289 83T374 69Q425 69 459 83T513 127T543 204T552 319V665L498 670V743H697V670L643 665Z"  />
<glyph unicode="V" horiz-adv-x="748" d="M652 664L433 0H310L91 664L40 669V743H240V670L188 666L339 198Q350 166 357 133T373 70H375Q382 99 389 132T408 198L559 666L508 670V743H708V669L652 664Z"  />
<glyph unicode="W" horiz-adv-x="963" d="M871 664L751 0H604L503 460L482 555H479L458 460L358 0H209L89 664L40 669V743H238V670L186 665L260 221L284 73H289L321 220L410 633H554L644 217L675 73H680Q685 111 690 146T703 221L777 665L724 670V743H923V669L871 664Z"  />
<glyph unicode="X" horiz-adv-x="722" d="M463 0V68L509 72L354 306L204 71L257 68V0H50V73L106 78L303 378L111 664L55 669V743H262V675L215 671L367 443L512 670L460 675V743H667V669L610 664L416 374L615 78L672 73V0H463Z"  />
<glyph unicode="Y" horiz-adv-x="662" d="M581 665L376 294V81L430 76V0H231V76L285 81V294L80 665L35 669V743H233V675L178 670L273 498Q287 472 303 441T330 380H336Q347 409 364 440T396 498L490 670L431 675V743H627V669L581 665Z"  />
<glyph unicode="Z" horiz-adv-x="624" d="M55 0V102L456 661H150L141 592H70V743H555V642L155 81H488L499 156H569V0H55Z"  />
<glyph unicode="[" horiz-adv-x="404" d="M114 -208V743H346V666H203V-133H346V-208H114Z"  />
<glyph unicode="\" horiz-adv-x="442" d="M329 0L25 743H111L416 0H329Z"  />
<glyph unicode="]" horiz-adv-x="404" d="M57 -208V-133H200V667H57V743H289V-208H57Z"  />
<glyph unicode="^" horiz-adv-x="702" d="M493 415L350 701L208 415H109L274 746H426L591 415H493Z"  />
<glyph unicode="_" horiz-adv-x="574" d="M-6 -106V-47H579V-106H-6Z"  />
<glyph unicode="`" horiz-adv-x="457" d="M204 616L54 770H163L294 616H204Z"  />
<glyph unicode="a" horiz-adv-x="575" d="M391 0V37Q366 20 322 3T216 -14Q138 -14 95 22T52 142V162Q52 216 70 249T121 301T200 326T305 332H387V372Q387 408 383 430T364 465T325 483T258 488Q235 488 213 488T166 485L157 427H88V540Q94 542 110 546T150 554T203 561T265 564Q334 564 375 552T439 515T469 455T477 372V78L531 73V0H391ZM387 264H305Q261 264 231 261T180 246T151 215T142 162V135Q142 112 149 97T168 72T197 60T234 56Q258 56 282 61T326 72T362 86T387 100V264Z"  />
<glyph unicode="b" horiz-adv-x="575" d="M520 238Q520 106 459 46T276 -14Q250 -14 229 -13T184 -11T135 -7T74 0V697L20 702V775H164V529Q201 549 239 557T312 566Q419 566 469 509T520 332V238ZM430 333Q430 416 401 451T301 487Q290 487 274 486T238 482T200 473T164 458V71Q183 69 212 68T278 66Q317 66 345 74T392 103T420 157T430 239V333Z"  />
<glyph unicode="c" horiz-adv-x="489" d="M434 5Q420 0 379 -7T277 -14Q164 -14 111 51T57 234V317Q57 436 110 500T277 564Q333 564 375 558T434 545V427H364L355 484Q340 486 321 486T290 487Q257 487 231 480T186 453T157 401T147 317V234Q147 183 157 150T185 97T230 71T290 63Q312 63 347 65T434 73V5H434Z"  />
<glyph unicode="d" horiz-adv-x="601" d="M416 0V28Q388 11 349 -1T262 -14Q165 -14 111 42T57 221V316Q57 390 74 438T122 514T194 553T284 564Q317 564 348 561T413 550V695L352 700V774H503V78L557 73V0H416ZM413 475Q379 481 346 484T290 488Q257 488 231 482T186 458T157 405T147 316V221Q147 139 178 101T279 63Q316 63 349 72T413 97V475Z"  />
<glyph unicode="e" horiz-adv-x="569" d="M144 242V231Q144 195 148 165T170 112T220 77T310 64Q333 64 358 65T409 68T458 74T502 80V8Q473 0 424 -7T306 -14Q233 -14 185 2T107 52T66 134T54 251V293Q54 424 111 494T287 564Q409 564 466 493T523 282V242H144ZM430 326Q430 351 426 379T407 431T364 470T288 486Q241 486 213 471T169 431T150 379T145 326V316H430V326Z"  />
<glyph unicode="f" horiz-adv-x="423" d="M229 475V78L283 73V0H85V73L139 78V475L35 483V550H139V616Q139 648 143 678T161 733T204 772T281 787Q313 787 340 783T387 773V712Q369 713 344 714T293 716Q270 716 257 710T238 692T231 661T229 616V550H385V475H229Z"  />
<glyph unicode="g" horiz-adv-x="579" d="M531 -46Q531 -87 518 -119T476 -175T401 -210T288 -223Q221 -223 176 -211T103 -176T63 -121T51 -46Q51 -14 64 18T102 73Q57 103 57 156Q57 212 103 243Q62 288 62 374Q62 414 71 449T106 509T176 549T290 564H534V500L476 492Q485 480 499 451T513 374Q513 329 501 294T461 235T391 197T287 184Q245 184 213 189T158 205Q135 187 135 163Q135 142 147 134T186 126H287Q341 126 385 121T462 97T513 45T531 -46ZM442 -45Q442 -15 435 4T411 34T363 49T287 53H175Q161 40 151 16T140 -45Q140 -71 145 -90T165 -123T210 -143T288 -150Q334 -150 364 -144T411 -124T435 -91T442 -45ZM425 374Q425 401 420 422T400 459T358 482T287 490Q242 490 215 482T174 458T155 422T150 374Q150 348 155 327T175 290T216 267T287 258Q331 258 358 266T400 290T420 326T425 374Z"  />
<glyph unicode="h" horiz-adv-x="640" d="M452 0V348Q452 388 447 415T429 457T396 479T348 486Q300 486 257 473T187 447V78L241 73V0H44V73L98 78V695L44 700V774H187V519Q213 533 259 548T366 564Q457 564 499 512T542 351V78L596 73V0H452Z"  />
<glyph unicode="i" horiz-adv-x="285" d="M44 0V74L98 78V471L44 476V550H188V78L241 74V0H44ZM98 652V774H189V652H98Z"  />
<glyph unicode="j" horiz-adv-x="272" d="M192 -66Q192 -110 185 -140T162 -188T119 -214T53 -222Q34 -222 14 -221T-14 -217V-151Q-4 -151 11 -151T45 -152Q63 -152 74 -148T92 -134T100 -108T102 -66V471L48 476V550H192V-66ZM102 652V774H193V652H102Z"  />
<glyph unicode="k" horiz-adv-x="568" d="M409 0L187 273V0H44V73L98 78V695L44 700V774H187V302L408 550H524V476L454 471L290 289L463 78L524 73V0H409Z"  />
<glyph unicode="l" horiz-adv-x="285" d="M44 0V73L98 78V695L44 700V774H187V78L241 73V0H44Z"  />
<glyph unicode="m" horiz-adv-x="900" d="M712 0V365Q712 394 711 416T702 455T678 479T630 487Q601 487 564 475T491 441Q494 421 494 402T495 365V0H405V365Q405 394 404 416T396 455T374 479T330 487Q294 487 256 472T187 439V78L241 73V0H44V73L98 78V471L44 476V550H187V507Q221 532 262 548T351 564Q399 564 427 548T472 505Q520 537 562 550T642 564Q702 564 734 545T782 497T799 432T802 365V78L856 73V0H712Z"  />
<glyph unicode="n" horiz-adv-x="640" d="M452 0V351Q452 388 449 414T435 456T406 480T360 487Q328 487 285 475T187 438V78L241 73V0H44V73L98 78V471L44 476V550H187V507Q235 532 279 548T370 564Q425 564 458 550T510 508T535 441T542 351V78L596 73V0H452Z"  />
<glyph unicode="o" horiz-adv-x="582" d="M525 235Q525 114 466 50T290 -14Q174 -14 115 50T56 235V315Q56 436 115 500T290 564Q407 564 466 500T525 315V235ZM435 315Q435 405 401 445T290 485Q215 485 181 445T146 315V235Q146 145 180 105T290 65Q366 65 400 105T435 235V315Z"  />
<glyph unicode="p" horiz-adv-x="599" d="M543 254Q543 174 525 123T476 41T402 -2T310 -14Q282 -14 248 -10T187 2V-131L241 -136V-210H44V-136L98 -131V471L44 476V550H184V513Q221 539 262 551T344 564Q391 564 428 550T490 506T529 426T543 308V254ZM454 308Q454 359 446 393T423 447T384 476T330 485Q314 485 299 483T267 477T231 464T187 444V77Q221 70 251 66T310 62Q343 62 369 69T415 98T444 156T454 254V308Z"  />
<glyph unicode="q" horiz-adv-x="601" d="M359 -210V-136L413 -131V25Q366 3 324 -5T246 -14Q198 -14 162 0T103 44T68 123T56 242V297Q56 376 71 427T118 509T196 552T305 564Q330 564 351 564T395 561T442 556T502 549V-132L556 -137V-210H359ZM412 480Q402 481 388 481T359 483T329 484T303 485Q264 485 235 479T186 454T156 397T146 297V242Q146 192 151 159T170 104T206 74T261 65Q284 65 323 71T412 98V480Z"  />
<glyph unicode="r" horiz-adv-x="407" d="M382 484Q355 484 327 481T273 471T225 456T187 437V78L241 73V0H44V73L98 78V471L44 476V550H186V506Q225 537 274 550T382 564V484H382Z"  />
<glyph unicode="s" horiz-adv-x="492" d="M442 139Q442 109 433 82T401 33T338 -1T237 -14Q208 -14 179 -12T125 -6T82 2T57 8V136H127L137 67Q161 65 185 64T234 63Q269 63 292 68T328 82T347 105T352 137Q352 155 348 168T332 192T298 215T241 241L201 258Q161 275 133 292T86 330T59 373T50 427Q50 496 97 530T249 564Q277 564 304 562T356 557T397 551T423 544V427H353L343 483Q321 485 295 486T253 487Q193 487 167 476T140 427Q140 411 144 399T158 377T188 356T236 332L276 315Q324 294 356 276T407 238T434 195T442 139Z"  />
<glyph unicode="t" horiz-adv-x="433" d="M383 1Q372 -3 343 -8T282 -14Q207 -14 177 17T146 126V475L35 483V550H146V693H236V550H383V475H236V130Q236 107 237 93T245 71T262 61T292 58Q304 58 317 58T342 59T366 61T383 63V1H383Z"  />
<glyph unicode="u" horiz-adv-x="640" d="M452 0V43Q397 15 350 1T261 -14Q210 -14 178 2T129 48T105 115T98 199V471L44 476V550H187V199Q187 161 190 136T204 94T233 70T280 63Q312 63 354 75T452 112V471L398 476V550H542V78L596 73V0H452Z"  />
<glyph unicode="v" horiz-adv-x="619" d="M528 471L371 0H247L90 471L40 476V550H216V483L183 480L266 212Q279 171 289 135T309 61H311Q321 99 330 134T353 212L435 480L403 483V550H579V476L528 471Z"  />
<glyph unicode="w" horiz-adv-x="914" d="M527 505L613 209Q623 177 631 141T651 68H656Q658 103 664 138T678 210L736 479L694 483V550H874V476L825 472L718 0H588L489 330Q477 369 470 396T459 441H455Q451 423 444 396T425 330L326 0H196L89 472L40 476V550H220V483L178 479L236 210Q244 174 250 139T258 68H263Q274 105 282 141T301 209L387 505H527Z"  />
<glyph unicode="x" horiz-adv-x="593" d="M431 0L290 205L153 0H40V73L101 78L239 280L109 471L47 476V550H161L306 338L443 550H553V476L491 471L353 269L484 78L545 73V0H431Z"  />
<glyph unicode="y" horiz-adv-x="641" d="M539 471L359 -48Q345 -88 331 -120T295 -174T245 -209T174 -222Q139 -222 110 -219T67 -212V-143Q99 -145 121 -146T171 -147Q191 -147 205 -142T230 -123T250 -90T270 -39L284 0L102 471L40 476V550H227V483L196 480L282 241Q295 204 304 172T326 95H328Q338 139 347 171T370 242L448 480L415 483V550H601V476L539 471Z"  />
<glyph unicode="z" horiz-adv-x="503" d="M50 0V101L356 475H142L133 427H63V550H452V457L141 74H373L383 136H453V0H50Z"  />
<glyph unicode="{" horiz-adv-x="412" d="M288 -210Q234 -210 201 -201T150 -173T126 -130T119 -71V113Q119 138 116 155T106 186T86 210T54 235V298Q73 311 85 322T105 347T116 377T119 419V604Q119 638 125 664T150 707T201 734T288 743H351V667H288Q261 667 245 665T221 655T210 636T208 604V419Q208 362 192 327T138 266Q175 240 191 205T208 113V-71Q208 -91 210 -103T220 -123T245 -132T288 -135H352V-210H288Z"  />
<glyph unicode="|" horiz-adv-x="316" d="M113 -210V743H202V-210H113Z"  />
<glyph unicode="}" horiz-adv-x="412" d="M358 235Q339 222 327 211T307 186T296 156T293 113V-71Q293 -104 287 -129T262 -173T211 -200T124 -210H60V-135H124Q151 -135 167 -133T191 -123T202 -104T204 -71V113Q204 170 220 205T274 266Q236 292 220 327T204 419V604Q204 623 202 635T192 655T167 664T124 667H61V743H124Q178 743 211 734T262 708T286 664T293 604V419Q293 394 296 377T306 347T326 323T358 298V235H358Z"  />
<glyph unicode="~" horiz-adv-x="702" d="M584 479Q584 449 579 424T562 380T528 352T473 341Q441 341 413 349T358 381L295 432Q276 448 264 456T233 464Q205 464 197 447T189 395V350H117V395Q117 426 123 451T142 495T178 524T234 534Q265 534 287 523T337 488L397 440Q414 426 431 419T469 411Q498 411 505 429T512 479V526H584V479H584Z"  />
<glyph unicode="&#xA0;" horiz-adv-x="191" />
<glyph unicode="&#xA1;" horiz-adv-x="251" d="M77 -225L87 356H165L174 -225H77ZM171 414H80V549H171V414Z"  />
<glyph unicode="&#xA2;" horiz-adv-x="519" d="M437 6Q426 2 393 -4T316 -12V-120H235V-9Q146 4 103 67T60 239V312Q60 421 103 484T235 560V668H316V563Q360 561 393 555T437 545V427H367L357 485Q343 486 326 486T292 487Q259 487 233 480T188 453T160 399T150 312V239Q150 186 160 152T188 99T232 72T292 64Q336 64 437 73V6H437Z"  />
<glyph unicode="&#xA3;" horiz-adv-x="624" d="M98 0V70Q124 98 133 133T143 196V349H65V425H143V501Q143 563 152 610T186 690T255 738T368 755Q436 755 486 748T558 735V592H487L476 671Q456 673 428 674T374 675Q327 675 300 666T258 637T239 584T235 501V425H484V349H235V196Q235 165 226 135T199 78H558V0H98Z"  />
<glyph unicode="&#xA4;" horiz-adv-x="652" d="M513 129L437 204Q412 188 383 180T326 171Q297 171 269 179T214 204L138 130L76 192L151 267Q135 292 127 321T118 379Q118 409 126 437T151 491L76 566L138 628L214 554Q240 571 268 578T326 586Q355 586 383 579T438 554L513 627L576 566L501 491Q517 465 525 437T534 379Q534 318 501 267L576 192L513 129ZM459 379Q459 407 448 432T419 475T377 504T326 515Q299 515 275 505T233 476T204 432T193 379Q193 351 204 326T233 283T275 254T326 243Q353 243 377 253T419 282T448 326T459 379Z"  />
<glyph unicode="&#xA5;" horiz-adv-x="649" d="M370 241V81L424 76V0H224V76L278 81V241H51V312H272L219 411H52V482H180L87 665L41 669V743H148L271 498Q285 472 299 444T324 386H326Q338 415 351 443T378 498L502 743H608V669L562 665L468 482H596V411H429L375 312H596V241H370Z"  />
<glyph unicode="&#xA6;" horiz-adv-x="316" d="M113 -207V189H202V-207H113ZM113 348V743H202V348H113Z"  />
<glyph unicode="&#xA7;" horiz-adv-x="648" d="M561 -20Q561 -61 548 -97T505 -160T430 -202T317 -218Q284 -218 251 -216T188 -211T137 -205T105 -198V-49H176L185 -130Q210 -132 245 -133T312 -135Q356 -135 385 -128T431 -106T456 -70T463 -20Q463 1 460 17T446 50T411 82T348 120L222 185Q149 223 118 268T87 377Q87 397 92 425T112 479Q87 518 87 579Q87 665 143 710T330 755Q397 755 452 748T535 735V592H465L454 668Q425 670 394 671T334 672Q289 672 260 666T213 649T190 620T183 579Q183 559 187 542T202 510T233 481T285 451L406 392Q452 370 482 347T529 300T554 248T561 191Q561 170 556 145T533 87Q561 40 561 -20ZM468 173Q468 199 466 218T453 252T422 281T367 312L246 371Q230 379 220 385T201 397T186 408T173 419V389Q173 360 175 342T188 310T216 286T267 258L391 196Q410 187 430 173T468 148V173Z"  />
<glyph unicode="&#xA8;" horiz-adv-x="457" d="M303 643V761H384V643H303ZM156 643H74V761H156V643Z"  />
<glyph unicode="&#xA9;" horiz-adv-x="845" d="M768 377Q768 291 742 223T670 109T560 38T420 13Q344 13 280 37T170 108T97 223T71 377Q71 462 97 529T169 644T280 715T420 740Q496 740 560 716T670 644T742 530T768 377ZM696 377Q696 446 676 501T619 594T532 652T420 673Q359 673 309 653T222 594T165 501T145 377Q145 307 165 252T221 159T308 100T420 79Q481 79 531 99T618 158T675 252T696 377ZM538 173Q529 171 516 169T488 166T456 164T426 163Q338 163 292 210T245 346V408Q245 499 291 544T426 590Q440 590 456 590T488 588T517 584T538 580V480H482L475 522Q464 523 454 523T430 523Q399 523 379 517T347 497T331 461T326 408V346Q326 315 330 293T347 257T379 237T430 230Q443 230 453 230T475 232L482 273H538V173Z"  />
<glyph unicode="&#xAA;" horiz-adv-x="433" d="M282 434V458Q265 447 236 437T165 426Q118 426 88 449T57 523V533Q57 568 70 588T107 619T161 633T228 636H278V655Q278 675 275 687T264 707T239 718T197 721Q170 721 140 718L135 687H82V761Q93 764 128 770T208 777Q253 777 281 770T324 747T346 709T352 655V494L383 492V434H282ZM279 588H228Q174 588 152 579T129 534V521Q129 494 145 488T186 482Q215 482 241 491T279 507V588Z"  />
<glyph unicode="&#xAB;" horiz-adv-x="676" d="M512 81L349 289L512 495H618L460 289L618 81H512ZM324 81H218L55 289L218 495H324L166 289L324 81Z"  />
<glyph unicode="&#xAC;" horiz-adv-x="702" d="M499 244V464H127V539H574V244H499Z"  />
<glyph unicode="&#xAD;" horiz-adv-x="396" d="M74 255V330H321V255H74Z"  />
<glyph unicode="&#xAE;" horiz-adv-x="682" d="M607 476Q607 412 588 360T535 270T450 213T339 193Q277 193 228 213T144 270T90 359T71 476Q71 540 90 592T143 682T227 739T339 759Q400 759 450 739T534 682T588 593T607 476ZM546 476Q546 583 491 643T339 703Q241 703 186 643T131 476Q131 367 186 308T339 248Q436 248 491 307T546 476ZM212 325V367L235 370V598L212 601V646Q239 647 266 647T322 647Q352 647 378 644T422 630T452 600T463 550V547Q463 475 399 455L457 371L484 368V325H412L332 444H298V370L321 367V325H212ZM399 550Q399 582 380 589T322 596H298V493H323Q361 493 380 504T399 547V550Z"  />
<glyph unicode="&#xAF;" horiz-adv-x="457" d="M57 655V725H400V655H57Z"  />
<glyph unicode="&#xB0;" horiz-adv-x="454" d="M401 581Q401 545 388 514T350 459T295 423T227 409Q191 409 160 422T105 459T68 513T54 581Q54 617 67 648T104 703T159 740T227 754Q263 754 294 741T350 704T387 649T401 581ZM325 581Q325 626 297 653T226 681Q185 681 157 654T128 581Q128 537 156 509T226 481Q268 481 296 509T325 581Z"  />
<glyph unicode="&#xB1;" horiz-adv-x="702" d="M103 0V74H597V0H103ZM388 384V169H315V384H100V457H315V672H388V457H601V384H388Z"  />
<glyph unicode="&#xB2;" horiz-adv-x="452" d="M62 301V357Q62 396 70 424T95 473T140 513T208 551Q240 566 258 577T287 598T299 618T302 643Q302 672 280 683T203 694Q188 694 168 694T129 691L124 646H69V740Q75 741 90 744T126 749T168 754T212 756Q300 756 342 730T384 645Q384 622 378 603T357 567T318 533T257 498Q221 480 199 467T164 441T147 411T143 371V365H317L323 408H378V301H62Z"  />
<glyph unicode="&#xB3;" horiz-adv-x="451" d="M381 425Q381 351 337 321T207 291Q186 291 164 293T123 298T88 304T64 310V405H119L125 356Q142 355 161 354T201 353Q251 353 275 367T300 427V438Q300 451 298 463T287 483T264 496T223 501H86V561H223Q248 561 263 566T287 581T297 601T300 626V633Q300 667 279 680T200 694Q182 694 163 694T126 691L120 646H66V740Q71 741 85 744T120 749T162 754T207 756Q294 756 337 730T381 636V629Q381 601 368 574T324 531Q356 516 368 491T381 436V425H381Z"  />
<glyph unicode="&#xB4;" horiz-adv-x="457" d="M241 616H151L282 770H391L241 616Z"  />
<glyph unicode="&#xB5;" horiz-adv-x="645" d="M100 471L46 476V550H190V199Q190 161 193 136T207 94T236 70T283 63Q344 63 454 112V471L400 476V550H544V78L598 73V0H454V43Q400 15 353 1T263 -14Q220 -14 190 -2V-131L244 -136V-210H46V-136L100 -131V471Z"  />
<glyph unicode="&#xB6;" horiz-adv-x="736" d="M570 -198V666H513V-198H317V-124L429 -118V257H383Q315 257 257 267T157 303T92 376T68 495V505Q68 581 92 627T159 699T261 734T392 743H654V-198H570Z"  />
<glyph unicode="&#xB7;" horiz-adv-x="252" d="M80 300V438H171V300H80Z"  />
<glyph unicode="&#xB8;" horiz-adv-x="457" d="M165 -210H73L189 -68H301L165 -210Z"  />
<glyph unicode="&#xB9;" horiz-adv-x="430" d="M76 300V359L180 362V672L75 639V706L203 749H262V362L366 359V300H76Z"  />
<glyph unicode="&#xBA;" horiz-adv-x="438" d="M381 585Q381 507 340 466T219 425Q140 425 99 466T57 585V618Q57 697 98 737T219 777Q298 777 339 737T381 618V585ZM307 618Q307 671 287 693T219 716Q173 716 152 694T131 618V585Q131 532 151 510T219 487Q266 487 286 509T307 585V618Z"  />
<glyph unicode="&#xBB;" horiz-adv-x="676" d="M458 81H352L510 289L352 495H458L621 289L458 81ZM327 289L163 81H57L216 289L57 495H163L327 289Z"  />
<glyph unicode="&#xBC;" horiz-adv-x="943" d="M816 110V54L849 51V0H701V51L734 54V110H509V176L737 446H816V171H886V110H816ZM736 352L584 171H736V352ZM314 0H224L697 743H787L314 0ZM69 300V359L173 362V672L68 639V706L196 749H255V362L359 359V300H69Z"  />
<glyph unicode="&#xBD;" horiz-adv-x="1034" d="M644 0V56Q644 95 652 122T677 171T722 211T790 249Q822 264 840 275T869 297T881 317T884 341Q884 370 862 381T785 393Q770 393 750 393T711 390L706 344H651V439Q657 440 672 443T708 448T750 452T794 454Q882 454 924 428T966 343Q966 320 960 301T939 265T900 231T839 197Q803 179 781 166T746 140T729 110T725 70V64H899L905 107H960V0H644ZM314 0H224L697 743H787L314 0ZM69 300V359L173 362V672L68 639V706L196 749H255V362L359 359V300H69Z"  />
<glyph unicode="&#xBE;" horiz-adv-x="989" d="M855 110V54L888 51V0H740V51L773 54V110H548V176L776 446H855V171H925V110H855ZM775 352L623 171H775V352ZM322 0H232L706 743H796L322 0ZM377 425Q377 351 333 321T203 291Q182 291 160 293T119 298T84 304T60 310V405H115L121 356Q138 355 157 354T197 353Q247 353 271 367T296 427V438Q296 451 294 463T283 483T260 496T219 501H82V561H219Q244 561 259 566T283 581T293 601T296 626V633Q296 667 275 680T196 694Q178 694 159 694T122 691L116 646H62V740Q67 741 81 744T116 749T158 754T203 756Q290 756 333 730T377 636V629Q377 601 364 574T320 531Q352 516 364 491T377 436V425Z"  />
<glyph unicode="&#xBF;" horiz-adv-x="497" d="M442 -214Q405 -224 361 -230T277 -237Q177 -237 123 -200T68 -74V-66Q68 -42 73 -20T90 27T122 77T172 133Q204 166 223 188T251 230T264 268T267 315V356H355V315Q355 283 352 258T339 208T309 159T256 100Q227 71 209 49T181 8T166 -29T162 -66V-74Q162 -125 193 -141T285 -158Q305 -158 323 -158T361 -156L372 -80H442V-214ZM265 412V550H356V412H265Z"  />
<glyph unicode="&#xC0;" horiz-adv-x="739" d="M35 0V73L90 78L281 664L223 669V743H434L652 78L704 73V0H502V73L554 77L502 243H236L183 77L235 73V0H35ZM404 544Q394 574 387 603T374 666H364Q357 633 351 604T334 544L263 327H474L404 544ZM349 800L199 954H308L439 800H349Z"  />
<glyph unicode="&#xC1;" horiz-adv-x="739" d="M35 0V73L90 78L281 664L223 669V743H434L652 78L704 73V0H502V73L554 77L502 243H236L183 77L235 73V0H35ZM404 544Q394 574 387 603T374 666H364Q357 633 351 604T334 544L263 327H474L404 544ZM364 800H274L405 954H514L364 800Z"  />
<glyph unicode="&#xC2;" horiz-adv-x="739" d="M35 0V73L90 78L281 664L223 669V743H434L652 78L704 73V0H502V73L554 77L502 243H236L183 77L235 73V0H35ZM404 544Q394 574 387 603T374 666H364Q357 633 351 604T334 544L263 327H474L404 544ZM474 800L369 905L265 800H175L310 954H429L564 800H474Z"  />
<glyph unicode="&#xC3;" horiz-adv-x="739" d="M35 0V73L90 78L281 664L223 669V743H434L652 78L704 73V0H502V73L554 77L502 243H236L183 77L235 73V0H35ZM404 544Q394 574 387 603T374 666H364Q357 633 351 604T334 544L263 327H474L404 544ZM573 925Q573 869 552 835T476 801Q448 801 424 811T374 842L333 875Q316 889 304 896T276 903Q255 903 248 887T241 842V808H176V842Q176 899 199 932T276 966Q305 966 326 957T373 928L415 894Q431 881 444 873T474 865Q496 865 502 880T509 925V959H573V925H573Z"  />
<glyph unicode="&#xC4;" horiz-adv-x="739" d="M35 0V73L90 78L281 664L223 669V743H434L652 78L704 73V0H502V73L554 77L502 243H236L183 77L235 73V0H35ZM404 544Q394 574 387 603T374 666H364Q357 633 351 604T334 544L263 327H474L404 544ZM442 811V929H523V811H442ZM295 811H213V929H295V811Z"  />
<glyph unicode="&#xC5;" horiz-adv-x="739" d="M35 0V73L90 78L281 664L223 669V743H434L652 78L704 73V0H502V73L554 77L502 243H236L183 77L235 73V0H35ZM404 544Q394 574 387 603T374 666H364Q357 633 351 604T334 544L263 327H474L404 544ZM486 872Q486 814 453 789T371 763Q346 763 325 769T287 788T262 822T253 872Q253 901 262 921T287 955T324 975T371 981Q420 981 453 956T486 872ZM426 872Q426 904 410 915T371 927Q347 927 331 916T315 872Q315 841 331 829T371 817Q394 817 410 829T426 872Z"  />
<glyph unicode="&#xC6;" horiz-adv-x="996" d="M35 73L90 79L281 664L227 669V743H939V592H868L858 661H591V427H919V344H591V81H858L868 152H939V0H446V73L500 78V243H236L183 76L235 73V0H35V73ZM500 662H368Q360 634 352 607T335 550L263 325H500V662Z"  />
<glyph unicode="&#xC7;" horiz-adv-x="584" d="M527 3Q516 1 497 -2T455 -7T406 -12T355 -14Q291 -14 237 0T142 50T78 149T55 310V433Q55 531 78 593T141 692T236 741T355 755Q380 755 406 753T455 749T497 743T527 738V592H455L445 670Q423 671 401 672T355 673Q302 673 263 661T199 622T160 548T147 433V310Q147 241 160 195T198 121T263 81T355 69Q378 69 400 69T445 71L455 151H527V3ZM253 -210H161L277 -68H389L253 -210Z"  />
<glyph unicode="&#xC8;" horiz-adv-x="599" d="M50 0V73L104 78V664L50 669V743H544V592H472L462 661H196V427H523V344H196V81H462L472 152H544V0H50ZM305 800L155 954H264L395 800H305Z"  />
<glyph unicode="&#xC9;" horiz-adv-x="599" d="M50 0V73L104 78V664L50 669V743H544V592H472L462 661H196V427H523V344H196V81H462L472 152H544V0H50ZM340 800H250L381 954H490L340 800Z"  />
<glyph unicode="&#xCA;" horiz-adv-x="599" d="M50 0V73L104 78V664L50 669V743H544V592H472L462 661H196V427H523V344H196V81H462L472 152H544V0H50ZM417 800L312 905L208 800H118L253 954H372L507 800H417Z"  />
<glyph unicode="&#xCB;" horiz-adv-x="599" d="M50 0V73L104 78V664L50 669V743H544V592H472L462 661H196V427H523V344H196V81H462L472 152H544V0H50ZM396 811V929H477V811H396ZM249 811H167V929H249V811Z"  />
<glyph unicode="&#xCC;" horiz-adv-x="305" d="M52 0V73L106 78V664L52 669V743H252V669L198 664V78L252 73V0H52ZM141 800L-9 954H100L231 800H141Z"  />
<glyph unicode="&#xCD;" horiz-adv-x="305" d="M52 0V73L106 78V664L52 669V743H252V669L198 664V78L252 73V0H52ZM166 800H76L207 954H316L166 800Z"  />
<glyph unicode="&#xCE;" horiz-adv-x="305" d="M52 0V73L106 78V664L52 669V743H252V669L198 664V78L252 73V0H52ZM257 800L152 905L48 800H-42L93 954H212L347 800H257Z"  />
<glyph unicode="&#xCF;" horiz-adv-x="305" d="M52 0V73L106 78V664L52 669V743H252V669L198 664V78L252 73V0H52ZM227 811V929H308V811H227ZM80 811H-2V929H80V811Z"  />
<glyph unicode="&#xD0;" horiz-adv-x="696" d="M638 312Q638 241 621 184T564 85T463 22T311 0H49V73L103 81V345H50V426H103V661L49 669V743H311Q398 743 460 721T561 659T619 561T638 433V312ZM544 433Q544 496 529 539T484 610T409 649T304 661H195V426H345V345H195V81H304Q364 81 409 93T484 133T529 205T544 312V433Z"  />
<glyph unicode="&#xD1;" horiz-adv-x="744" d="M640 664V0H509L247 533Q233 561 217 593T187 659H185Q187 622 188 583T190 504V78L244 73V0H50V73L104 78V664L50 669V743H236L495 224Q509 197 525 162T555 97H557Q554 142 553 183T552 260V665L498 670V743H694V669L640 664ZM567 920Q567 864 546 830T470 796Q442 796 418 806T368 837L327 870Q310 884 298 891T270 898Q249 898 242 882T235 837V803H170V837Q170 894 193 927T270 961Q299 961 320 952T367 923L409 889Q425 876 438 868T468 860Q490 860 496 875T503 920V954H567V920H567Z"  />
<glyph unicode="&#xD2;" horiz-adv-x="684" d="M629 318Q629 158 556 72T342 -14Q202 -14 129 72T55 318V424Q55 584 128 669T342 755Q482 755 555 670T629 424V318ZM536 424Q536 492 522 539T482 616T421 659T342 673Q299 673 264 660T203 617T163 540T148 424V318Q148 250 162 203T202 125T263 82T342 68Q385 68 420 81T481 125T521 202T536 318V424ZM320 800L170 954H279L410 800H320Z"  />
<glyph unicode="&#xD3;" horiz-adv-x="684" d="M629 318Q629 158 556 72T342 -14Q202 -14 129 72T55 318V424Q55 584 128 669T342 755Q482 755 555 670T629 424V318ZM536 424Q536 492 522 539T482 616T421 659T342 673Q299 673 264 660T203 617T163 540T148 424V318Q148 250 162 203T202 125T263 82T342 68Q385 68 420 81T481 125T521 202T536 318V424ZM363 800H273L404 954H513L363 800Z"  />
<glyph unicode="&#xD4;" horiz-adv-x="684" d="M629 318Q629 158 556 72T342 -14Q202 -14 129 72T55 318V424Q55 584 128 669T342 755Q482 755 555 670T629 424V318ZM536 424Q536 492 522 539T482 616T421 659T342 673Q299 673 264 660T203 617T163 540T148 424V318Q148 250 162 203T202 125T263 82T342 68Q385 68 420 81T481 125T521 202T536 318V424ZM446 800L341 905L237 800H147L282 954H401L536 800H446Z"  />
<glyph unicode="&#xD5;" horiz-adv-x="684" d="M629 318Q629 158 556 72T342 -14Q202 -14 129 72T55 318V424Q55 584 128 669T342 755Q482 755 555 670T629 424V318ZM536 424Q536 492 522 539T482 616T421 659T342 673Q299 673 264 660T203 617T163 540T148 424V318Q148 250 162 203T202 125T263 82T342 68Q385 68 420 81T481 125T521 202T536 318V424ZM539 920Q539 864 518 830T442 796Q414 796 390 806T340 837L299 870Q282 884 270 891T242 898Q221 898 214 882T207 837V803H142V837Q142 894 165 927T242 961Q271 961 292 952T339 923L381 889Q397 876 410 868T440 860Q462 860 468 875T475 920V954H539V920H539Z"  />
<glyph unicode="&#xD6;" horiz-adv-x="684" d="M629 318Q629 158 556 72T342 -14Q202 -14 129 72T55 318V424Q55 584 128 669T342 755Q482 755 555 670T629 424V318ZM536 424Q536 492 522 539T482 616T421 659T342 673Q299 673 264 660T203 617T163 540T148 424V318Q148 250 162 203T202 125T263 82T342 68Q385 68 420 81T481 125T521 202T536 318V424ZM416 811V929H497V811H416ZM269 811H187V929H269V811Z"  />
<glyph unicode="&#xD7;" horiz-adv-x="702" d="M501 188L351 338L199 186L148 237L300 390L147 542L198 593L351 441L502 593L554 541L402 389L553 239L501 188Z"  />
<glyph unicode="&#xD8;" horiz-adv-x="684" d="M629 318Q629 158 556 72T342 -14Q227 -14 156 45L124 0H29L105 106Q55 188 55 318V424Q55 584 128 669T342 755Q399 755 445 740T527 696L560 742H655L579 636Q629 554 629 424V318ZM536 424Q536 500 518 551L208 118Q234 92 267 80T342 68Q385 68 420 81T481 125T521 202T536 318V424ZM148 318Q148 242 166 191L475 623Q449 649 416 661T342 673Q299 673 264 660T203 617T163 540T148 424V318Z"  />
<glyph unicode="&#xD9;" horiz-adv-x="747" d="M643 665V309Q643 -14 374 -14Q104 -14 104 309V665L50 670V743H250V670L196 665V319Q196 251 204 204T234 126T289 83T374 69Q425 69 459 83T513 127T543 204T552 319V665L498 670V743H697V670L643 665ZM350 800L200 954H309L440 800H350Z"  />
<glyph unicode="&#xDA;" horiz-adv-x="747" d="M643 665V309Q643 -14 374 -14Q104 -14 104 309V665L50 670V743H250V670L196 665V319Q196 251 204 204T234 126T289 83T374 69Q425 69 459 83T513 127T543 204T552 319V665L498 670V743H697V670L643 665ZM400 800H310L441 954H550L400 800Z"  />
<glyph unicode="&#xDB;" horiz-adv-x="747" d="M643 665V309Q643 -14 374 -14Q104 -14 104 309V665L50 670V743H250V670L196 665V319Q196 251 204 204T234 126T289 83T374 69Q425 69 459 83T513 127T543 204T552 319V665L498 670V743H697V670L643 665ZM482 800L377 905L273 800H183L318 954H437L572 800H482Z"  />
<glyph unicode="&#xDC;" horiz-adv-x="747" d="M643 665V309Q643 -14 374 -14Q104 -14 104 309V665L50 670V743H250V670L196 665V319Q196 251 204 204T234 126T289 83T374 69Q425 69 459 83T513 127T543 204T552 319V665L498 670V743H697V670L643 665ZM447 811V929H528V811H447ZM300 811H218V929H300V811Z"  />
<glyph unicode="&#xDD;" horiz-adv-x="662" d="M581 665L376 294V81L430 76V0H231V76L285 81V294L80 665L35 669V743H233V675L178 670L273 498Q287 472 303 441T330 380H336Q347 409 364 440T396 498L490 670L431 675V743H627V669L581 665ZM376 800H286L417 954H526L376 800Z"  />
<glyph unicode="&#xDE;" horiz-adv-x="639" d="M50 0V73L104 78V664L50 669V743H249V670L196 665V613H294Q358 613 413 605T510 574T575 507T599 394V381Q599 311 576 268T511 200T414 168T294 159H196V78L249 73V0H50ZM506 394Q506 438 493 465T453 507T386 527T294 532H196V241H294Q347 241 386 246T452 266T492 308T506 381V394Z"  />
<glyph unicode="&#xDF;" horiz-adv-x="634" d="M579 215Q579 165 565 124T521 54T444 9T331 -7Q325 -7 310 -7T270 -4V66Q293 65 307 65T328 65Q414 65 452 100T491 216V239Q491 301 452 335T323 370H270V441H323Q367 441 396 450T442 477T467 518T475 571V582Q475 610 469 633T446 673T403 699T334 709Q293 709 265 699T218 664T192 598T183 496V0H39V73L93 78V496Q93 565 106 619T147 711T222 767T334 787Q394 787 437 772T508 729T549 664T563 582V571Q563 515 540 474T468 410Q521 389 550 346T579 239V215H579Z"  />
<glyph unicode="&#xE0;" horiz-adv-x="575" d="M391 0V37Q366 20 322 3T216 -14Q138 -14 95 22T52 142V162Q52 216 70 249T121 301T200 326T305 332H387V372Q387 408 383 430T364 465T325 483T258 488Q235 488 213 488T166 485L157 427H88V540Q94 542 110 546T150 554T203 561T265 564Q334 564 375 552T439 515T469 455T477 372V78L531 73V0H391ZM387 264H305Q261 264 231 261T180 246T151 215T142 162V135Q142 112 149 97T168 72T197 60T234 56Q258 56 282 61T326 72T362 86T387 100V264ZM276 616L126 770H235L366 616H276Z"  />
<glyph unicode="&#xE1;" horiz-adv-x="575" d="M391 0V37Q366 20 322 3T216 -14Q138 -14 95 22T52 142V162Q52 216 70 249T121 301T200 326T305 332H387V372Q387 408 383 430T364 465T325 483T258 488Q235 488 213 488T166 485L157 427H88V540Q94 542 110 546T150 554T203 561T265 564Q334 564 375 552T439 515T469 455T477 372V78L531 73V0H391ZM387 264H305Q261 264 231 261T180 246T151 215T142 162V135Q142 112 149 97T168 72T197 60T234 56Q258 56 282 61T326 72T362 86T387 100V264ZM318 616H228L359 770H468L318 616Z"  />
<glyph unicode="&#xE2;" horiz-adv-x="575" d="M391 0V37Q366 20 322 3T216 -14Q138 -14 95 22T52 142V162Q52 216 70 249T121 301T200 326T305 332H387V372Q387 408 383 430T364 465T325 483T258 488Q235 488 213 488T166 485L157 427H88V540Q94 542 110 546T150 554T203 561T265 564Q334 564 375 552T439 515T469 455T477 372V78L531 73V0H391ZM387 264H305Q261 264 231 261T180 246T151 215T142 162V135Q142 112 149 97T168 72T197 60T234 56Q258 56 282 61T326 72T362 86T387 100V264ZM385 616L280 721L176 616H86L221 770H340L475 616H385Z"  />
<glyph unicode="&#xE3;" horiz-adv-x="575" d="M391 0V37Q366 20 322 3T216 -14Q138 -14 95 22T52 142V162Q52 216 70 249T121 301T200 326T305 332H387V372Q387 408 383 430T364 465T325 483T258 488Q235 488 213 488T166 485L157 427H88V540Q94 542 110 546T150 554T203 561T265 564Q334 564 375 552T439 515T469 455T477 372V78L531 73V0H391ZM387 264H305Q261 264 231 261T180 246T151 215T142 162V135Q142 112 149 97T168 72T197 60T234 56Q258 56 282 61T326 72T362 86T387 100V264ZM481 736Q481 680 460 646T384 612Q356 612 332 622T282 653L241 686Q224 700 212 707T184 714Q163 714 156 698T149 653V619H84V653Q84 710 107 743T184 777Q213 777 234 768T281 739L323 705Q339 692 352 684T382 676Q404 676 410 691T417 736V770H481V736H481Z"  />
<glyph unicode="&#xE4;" horiz-adv-x="575" d="M391 0V37Q366 20 322 3T216 -14Q138 -14 95 22T52 142V162Q52 216 70 249T121 301T200 326T305 332H387V372Q387 408 383 430T364 465T325 483T258 488Q235 488 213 488T166 485L157 427H88V540Q94 542 110 546T150 554T203 561T265 564Q334 564 375 552T439 515T469 455T477 372V78L531 73V0H391ZM387 264H305Q261 264 231 261T180 246T151 215T142 162V135Q142 112 149 97T168 72T197 60T234 56Q258 56 282 61T326 72T362 86T387 100V264ZM354 643V761H435V643H354ZM207 643H125V761H207V643Z"  />
<glyph unicode="&#xE5;" horiz-adv-x="575" d="M391 0V37Q366 20 322 3T216 -14Q138 -14 95 22T52 142V162Q52 216 70 249T121 301T200 326T305 332H387V372Q387 408 383 430T364 465T325 483T258 488Q235 488 213 488T166 485L157 427H88V540Q94 542 110 546T150 554T203 561T265 564Q334 564 375 552T439 515T469 455T477 372V78L531 73V0H391ZM387 264H305Q261 264 231 261T180 246T151 215T142 162V135Q142 112 149 97T168 72T197 60T234 56Q258 56 282 61T326 72T362 86T387 100V264ZM397 709Q397 651 364 626T282 600Q257 600 236 606T198 625T173 659T164 709Q164 738 173 758T198 792T235 812T282 818Q331 818 364 793T397 709ZM337 709Q337 741 321 752T282 764Q258 764 242 753T226 709Q226 678 242 666T282 654Q305 654 321 666T337 709Z"  />
<glyph unicode="&#xE6;" horiz-adv-x="902" d="M480 242V231Q480 196 484 165T504 111T554 75T645 62Q701 62 748 67T838 80V8Q809 0 758 -7T643 -14Q565 -14 516 3T438 54Q387 19 336 3T218 -14Q140 -14 97 22T54 142V162Q54 216 72 249T123 301T202 326T307 332H389V372Q389 408 385 430T366 465T327 483T260 488Q237 488 215 488T168 485L159 427H90V540Q96 542 112 546T152 554T205 561T267 564Q310 564 341 560T393 548T427 529T451 502Q479 531 519 547T623 563Q744 563 801 492T858 290V242H480ZM766 326Q766 351 762 379T743 431T700 470T623 486Q576 486 548 471T505 431T486 379T481 326V316H766V326ZM389 264H307Q263 264 233 261T182 246T153 215T144 162V135Q144 112 151 97T170 72T199 60T236 56Q260 56 284 61T328 72T364 86T389 100V264Z"  />
<glyph unicode="&#xE7;" horiz-adv-x="489" d="M434 5Q420 0 379 -7T277 -14Q164 -14 111 51T57 234V317Q57 436 110 500T277 564Q333 564 375 558T434 545V427H364L355 484Q340 486 321 486T290 487Q257 487 231 480T186 453T157 401T147 317V234Q147 183 157 150T185 97T230 71T290 63Q312 63 347 65T434 73V5ZM205 -210H113L229 -68H341L205 -210Z"  />
<glyph unicode="&#xE8;" horiz-adv-x="569" d="M144 242V231Q144 195 148 165T170 112T220 77T310 64Q333 64 358 65T409 68T458 74T502 80V8Q473 0 424 -7T306 -14Q233 -14 185 2T107 52T66 134T54 251V293Q54 424 111 494T287 564Q409 564 466 493T523 282V242H144ZM430 326Q430 351 426 379T407 431T364 470T288 486Q241 486 213 471T169 431T150 379T145 326V316H430V326ZM279 616L129 770H238L369 616H279Z"  />
<glyph unicode="&#xE9;" horiz-adv-x="569" d="M144 242V231Q144 195 148 165T170 112T220 77T310 64Q333 64 358 65T409 68T458 74T502 80V8Q473 0 424 -7T306 -14Q233 -14 185 2T107 52T66 134T54 251V293Q54 424 111 494T287 564Q409 564 466 493T523 282V242H144ZM430 326Q430 351 426 379T407 431T364 470T288 486Q241 486 213 471T169 431T150 379T145 326V316H430V326ZM326 616H236L367 770H476L326 616Z"  />
<glyph unicode="&#xEA;" horiz-adv-x="569" d="M144 242V231Q144 195 148 165T170 112T220 77T310 64Q333 64 358 65T409 68T458 74T502 80V8Q473 0 424 -7T306 -14Q233 -14 185 2T107 52T66 134T54 251V293Q54 424 111 494T287 564Q409 564 466 493T523 282V242H144ZM430 326Q430 351 426 379T407 431T364 470T288 486Q241 486 213 471T169 431T150 379T145 326V316H430V326ZM396 616L291 721L187 616H97L232 770H351L486 616H396Z"  />
<glyph unicode="&#xEB;" horiz-adv-x="569" d="M144 242V231Q144 195 148 165T170 112T220 77T310 64Q333 64 358 65T409 68T458 74T502 80V8Q473 0 424 -7T306 -14Q233 -14 185 2T107 52T66 134T54 251V293Q54 424 111 494T287 564Q409 564 466 493T523 282V242H144ZM430 326Q430 351 426 379T407 431T364 470T288 486Q241 486 213 471T169 431T150 379T145 326V316H430V326ZM365 643V761H446V643H365ZM218 643H136V761H218V643Z"  />
<glyph unicode="&#xEC;" horiz-adv-x="285" d="M44 0V74L98 78V471L44 476V550H188V78L242 74V0H44ZM115 616L-35 770H74L205 616H115Z"  />
<glyph unicode="&#xED;" horiz-adv-x="285" d="M44 0V74L98 78V471L44 476V550H188V78L242 74V0H44ZM161 616H71L202 770H311L161 616Z"  />
<glyph unicode="&#xEE;" horiz-adv-x="285" d="M44 0V74L98 78V471L44 476V550H188V78L242 74V0H44ZM246 616L141 721L37 616H-53L82 770H201L336 616H246Z"  />
<glyph unicode="&#xEF;" horiz-adv-x="285" d="M44 0V74L98 78V471L44 476V550H188V78L242 74V0H44ZM216 643V761H297V643H216ZM69 643H-13V761H69V643Z"  />
<glyph unicode="&#xF0;" horiz-adv-x="582" d="M525 236Q525 114 466 51T290 -13Q174 -13 115 50T56 236V303Q56 426 115 489T290 552Q356 552 404 524Q387 571 359 606T287 665L153 578L117 626L218 695Q190 702 160 706T97 710Q94 710 88 710T74 709V781Q82 782 89 782T102 782Q158 782 205 774T293 749L373 800L410 753L357 716Q445 658 485 553T525 303V236ZM435 303Q435 395 401 435T290 475Q215 475 181 435T146 303V236Q146 145 180 105T290 65Q366 65 400 104T435 236V303Z"  />
<glyph unicode="&#xF1;" horiz-adv-x="640" d="M452 0V351Q452 388 449 414T435 456T406 480T360 487Q328 487 285 475T187 438V78L241 73V0H44V73L98 78V471L44 476V550H187V507Q235 532 279 548T370 564Q425 564 458 550T510 508T535 441T542 351V78L596 73V0H452ZM510 736Q510 680 489 646T413 612Q385 612 361 622T311 653L270 686Q253 700 241 707T213 714Q192 714 185 698T178 653V619H113V653Q113 710 136 743T213 777Q242 777 263 768T310 739L352 705Q368 692 381 684T411 676Q433 676 439 691T446 736V770H510V736H510Z"  />
<glyph unicode="&#xF2;" horiz-adv-x="582" d="M525 235Q525 114 466 50T290 -14Q174 -14 115 50T56 235V315Q56 436 115 500T290 564Q407 564 466 500T525 315V235ZM435 315Q435 405 401 445T290 485Q215 485 181 445T146 315V235Q146 145 180 105T290 65Q366 65 400 105T435 235V315ZM262 616L112 770H221L352 616H262Z"  />
<glyph unicode="&#xF3;" horiz-adv-x="582" d="M525 235Q525 114 466 50T290 -14Q174 -14 115 50T56 235V315Q56 436 115 500T290 564Q407 564 466 500T525 315V235ZM435 315Q435 405 401 445T290 485Q215 485 181 445T146 315V235Q146 145 180 105T290 65Q366 65 400 105T435 235V315ZM315 616H225L356 770H465L315 616Z"  />
<glyph unicode="&#xF4;" horiz-adv-x="582" d="M525 235Q525 114 466 50T290 -14Q174 -14 115 50T56 235V315Q56 436 115 500T290 564Q407 564 466 500T525 315V235ZM435 315Q435 405 401 445T290 485Q215 485 181 445T146 315V235Q146 145 180 105T290 65Q366 65 400 105T435 235V315ZM395 616L290 721L186 616H96L231 770H350L485 616H395Z"  />
<glyph unicode="&#xF5;" horiz-adv-x="582" d="M525 235Q525 114 466 50T290 -14Q174 -14 115 50T56 235V315Q56 436 115 500T290 564Q407 564 466 500T525 315V235ZM435 315Q435 405 401 445T290 485Q215 485 181 445T146 315V235Q146 145 180 105T290 65Q366 65 400 105T435 235V315ZM488 736Q488 680 467 646T391 612Q363 612 339 622T289 653L248 686Q231 700 219 707T191 714Q170 714 163 698T156 653V619H91V653Q91 710 114 743T191 777Q220 777 241 768T288 739L330 705Q346 692 359 684T389 676Q411 676 417 691T424 736V770H488V736H488Z"  />
<glyph unicode="&#xF6;" horiz-adv-x="582" d="M525 235Q525 114 466 50T290 -14Q174 -14 115 50T56 235V315Q56 436 115 500T290 564Q407 564 466 500T525 315V235ZM435 315Q435 405 401 445T290 485Q215 485 181 445T146 315V235Q146 145 180 105T290 65Q366 65 400 105T435 235V315ZM365 643V761H446V643H365ZM218 643H136V761H218V643Z"  />
<glyph unicode="&#xF7;" horiz-adv-x="702" d="M305 117V251H397V117H305ZM589 354H112V428H589V354ZM305 528V661H397V528H305Z"  />
<glyph unicode="&#xF8;" horiz-adv-x="582" d="M525 235Q525 114 466 50T290 -14Q207 -14 151 20L117 -24H24L97 72Q56 134 56 235V315Q56 436 114 500T290 564Q381 564 440 522L480 574H573L490 466Q525 405 525 315V235ZM146 235Q146 183 156 150L389 455Q354 485 290 485Q215 485 181 445T146 315V235ZM435 315Q435 335 433 352T428 384L201 87Q235 65 290 65Q365 65 400 105T435 235V315Z"  />
<glyph unicode="&#xF9;" horiz-adv-x="640" d="M452 0V43Q397 15 350 1T261 -14Q210 -14 178 2T129 48T105 115T98 199V471L44 476V550H187V199Q187 161 190 136T204 94T233 70T280 63Q312 63 354 75T452 112V471L398 476V550H542V78L596 73V0H452ZM292 616L142 770H251L382 616H292Z"  />
<glyph unicode="&#xFA;" horiz-adv-x="640" d="M452 0V43Q397 15 350 1T261 -14Q210 -14 178 2T129 48T105 115T98 199V471L44 476V550H187V199Q187 161 190 136T204 94T233 70T280 63Q312 63 354 75T452 112V471L398 476V550H542V78L596 73V0H452ZM346 616H256L387 770H496L346 616Z"  />
<glyph unicode="&#xFB;" horiz-adv-x="640" d="M452 0V43Q397 15 350 1T261 -14Q210 -14 178 2T129 48T105 115T98 199V471L44 476V550H187V199Q187 161 190 136T204 94T233 70T280 63Q312 63 354 75T452 112V471L398 476V550H542V78L596 73V0H452ZM421 616L316 721L212 616H122L257 770H376L511 616H421Z"  />
<glyph unicode="&#xFC;" horiz-adv-x="640" d="M452 0V43Q397 15 350 1T261 -14Q210 -14 178 2T129 48T105 115T98 199V471L44 476V550H187V199Q187 161 190 136T204 94T233 70T280 63Q312 63 354 75T452 112V471L398 476V550H542V78L596 73V0H452ZM389 643V761H470V643H389ZM242 643H160V761H242V643Z"  />
<glyph unicode="&#xFD;" horiz-adv-x="641" d="M539 471L359 -48Q345 -88 331 -120T295 -174T245 -209T174 -222Q139 -222 110 -219T67 -212V-143Q99 -145 121 -146T171 -147Q191 -147 205 -142T230 -123T250 -90T270 -39L284 0L102 471L40 476V550H227V483L196 480L282 241Q295 204 304 172T326 95H328Q338 139 347 171T370 242L448 480L415 483V550H601V476L539 471ZM360 616H270L401 770H510L360 616Z"  />
<glyph unicode="&#xFE;" horiz-adv-x="599" d="M187 514Q226 540 262 552T340 564Q438 564 490 506T543 322V238Q543 166 525 118T476 41T403 -1T311 -13Q282 -13 252 -9T187 2V-131L241 -136V-210H44V-136L98 -131V695L44 700V774H187V514ZM454 322Q454 409 423 447T330 485Q314 485 299 483T267 477T231 464T187 444V77Q221 71 254 67T310 63Q343 63 369 70T415 97T444 151T454 238V322Z"  />
<glyph unicode="&#xFF;" horiz-adv-x="641" d="M539 471L359 -48Q345 -88 331 -120T295 -174T245 -209T174 -222Q139 -222 110 -219T67 -212V-143Q99 -145 121 -146T171 -147Q191 -147 205 -142T230 -123T250 -90T270 -39L284 0L102 471L40 476V550H227V483L196 480L282 241Q295 204 304 172T326 95H328Q338 139 347 171T370 242L448 480L415 483V550H601V476L539 471ZM401 643V761H482V643H401ZM254 643H172V761H254V643Z"  />
<glyph unicode="&#x131;" horiz-adv-x="285" d="M44 0V74L98 78V471L44 476V550H188V78L242 74V0H44Z"  />
<glyph unicode="&#x152;" horiz-adv-x="995" d="M494 0Q476 -3 461 -5T430 -10T397 -13T356 -14Q210 -14 137 72T64 318V424Q64 584 137 669T355 755Q398 755 428 752T494 743H916V592H844L834 661H568V427H895V344H568V81H834L844 152H916V0H494ZM476 662Q437 668 412 670T356 673Q311 673 275 660T212 617T171 540T157 424V318Q157 250 171 203T212 125T274 82T356 68Q371 68 384 68T410 70T439 73T476 78V662Z"  />
<glyph unicode="&#x153;" horiz-adv-x="958" d="M524 242V231Q524 196 528 165T548 111T598 75T690 62Q745 62 792 67T882 80V8Q853 0 802 -7T687 -14Q602 -14 553 7T477 64Q448 26 402 6T289 -14Q173 -14 114 50T55 235V315Q55 436 114 500T289 564Q356 564 403 543T480 483Q508 522 555 543T667 564Q788 564 845 492T903 290V242H524ZM810 326Q810 351 806 379T787 432T744 471T668 487Q621 487 593 472T550 435T530 388T525 342V316H810V326ZM434 315Q434 405 400 446T289 487Q214 487 180 446T145 315V235Q145 145 179 105T289 64Q365 64 399 104T434 235V315Z"  />
<glyph unicode="&#x160;" horiz-adv-x="585" d="M530 188Q530 91 469 39T284 -14Q250 -14 217 -12T155 -6T104 0T72 7V155H142L153 69Q222 66 284 66Q360 66 398 94T436 188Q436 232 415 261T335 317L208 374Q134 407 95 452T55 575Q55 667 115 711T298 755Q331 755 363 753T423 748T472 742T503 735V592H433L420 671Q391 673 359 674T301 675Q227 675 188 654T148 575Q148 554 152 537T168 505T199 477T248 451L376 395Q415 378 444 358T492 313T520 258T530 188ZM345 800H226L91 954H181L285 848L390 954H480L345 800Z"  />
<glyph unicode="&#x161;" horiz-adv-x="492" d="M442 139Q442 109 433 82T401 33T338 -1T237 -14Q208 -14 179 -12T125 -6T82 2T57 8V136H127L137 67Q161 65 185 64T234 63Q269 63 292 68T328 82T347 105T352 137Q352 155 348 168T332 192T298 215T241 241L201 258Q161 275 133 292T86 330T59 373T50 427Q50 496 97 530T249 564Q277 564 304 562T356 557T397 551T423 544V427H353L343 483Q321 485 295 486T253 487Q193 487 167 476T140 427Q140 411 144 399T158 377T188 356T236 332L276 315Q324 294 356 276T407 238T434 195T442 139ZM306 616H187L52 770H142L246 664L351 770H441L306 616Z"  />
<glyph unicode="&#x178;" horiz-adv-x="662" d="M581 665L376 294V81L430 76V0H231V76L285 81V294L80 665L35 669V743H233V675L178 670L273 498Q287 472 303 441T330 380H336Q347 409 364 440T396 498L490 670L431 675V743H627V669L581 665ZM406 818V936H487V818H406ZM259 818H177V936H259V818Z"  />
<glyph unicode="&#x17D;" horiz-adv-x="624" d="M55 0V102L456 661H150L141 592H70V743H555V642L155 81H488L499 156H569V0H55ZM373 800H254L119 954H209L313 848L418 954H508L373 800Z"  />
<glyph unicode="&#x17E;" horiz-adv-x="503" d="M50 0V101L356 475H142L133 427H63V550H452V457L141 74H373L383 136H453V0H50ZM320 616H201L66 770H156L260 664L365 770H455L320 616Z"  />
<glyph unicode="&#x192;" horiz-adv-x="638" d="M571 680Q548 682 531 683T496 685Q476 685 462 682T436 670T418 642T406 593L383 429H556L545 354H370L323 17Q317 -30 302 -60T266 -107T219 -131T161 -138Q131 -138 106 -135T60 -126L69 -63Q89 -65 108 -66T148 -68Q164 -68 178 -66T203 -54T221 -26T234 23L281 354H125L136 429H293L317 599Q324 645 338 675T373 723T422 748T484 755Q510 755 534 752T579 743L571 680Z"  />
<glyph unicode="&#x2C6;" horiz-adv-x="457" d="M333 616L228 721L124 616H34L169 770H288L423 616H333Z"  />
<glyph unicode="&#x2DC;" horiz-adv-x="457" d="M430 736Q430 680 409 646T333 612Q305 612 281 622T231 653L190 686Q173 700 161 707T133 714Q112 714 105 698T98 653V619H33V653Q33 710 56 743T133 777Q162 777 183 768T230 739L272 705Q288 692 301 684T331 676Q353 676 359 691T366 736V770H430V736H430Z"  />
<glyph unicode="&#x2013;" horiz-adv-x="504" d="M74 255V331H430V255H74Z"  />
<glyph unicode="&#x2014;" horiz-adv-x="643" d="M74 255V331H569V255H74Z"  />
<glyph unicode="&#x2018;" horiz-adv-x="183" d="M116 545H20L95 774H163L116 545Z"  />
<glyph unicode="&#x2019;" horiz-adv-x="183" d="M89 545H20L68 774H163L89 545Z"  />
<glyph unicode="&#x201A;" horiz-adv-x="183" d="M89 -94H20L68 134H163L89 -94Z"  />
<glyph unicode="&#x201C;" horiz-adv-x="366" d="M298 545H203L277 774H346L298 545ZM115 545H20L94 774H163L115 545Z"  />
<glyph unicode="&#x201D;" horiz-adv-x="366" d="M272 545H203L251 774H346L272 545ZM89 545H20L68 774H163L89 545Z"  />
<glyph unicode="&#x201E;" horiz-adv-x="366" d="M272 -94H203L251 134H346L272 -94ZM163 134L89 -94H20L68 134H163Z"  />
<glyph unicode="&#x2020;" horiz-adv-x="510" d="M293 481V-130H204V481H77V560H204V774H293V560H433V481H293Z"  />
<glyph unicode="&#x2021;" horiz-adv-x="510" d="M293 268V-130H204V268H77V346H204V477H77V556H204V770H293V556H433V477H293V346H433V268H293Z"  />
<glyph unicode="&#x2022;" horiz-adv-x="533" d="M445 369Q445 332 431 300T393 243T336 205T266 191Q229 191 197 205T140 243T102 299T88 369Q88 406 102 438T140 495T196 534T266 548Q303 548 335 534T392 496T431 439T445 369Z"  />
<glyph unicode="&#x2026;" horiz-adv-x="822" d="M648 0V138H738V0H648ZM456 0H366V138H456V0ZM83 0V138H174V0H83Z"  />
<glyph unicode="&#x2030;" horiz-adv-x="1483" d="M1424 194Q1424 93 1379 42T1248 -10Q1163 -10 1118 41T1072 194V251Q1072 352 1117 403T1248 454Q1333 454 1378 403T1424 251V194ZM1344 251Q1344 291 1337 317T1316 359T1286 380T1248 386Q1228 386 1211 380T1180 359T1160 318T1152 251V194Q1152 153 1159 127T1180 86T1210 64T1248 58Q1268 58 1285 64T1316 85T1336 127T1344 194V251ZM1009 194Q1009 93 964 42T833 -10Q748 -10 703 41T657 194V251Q657 352 702 403T833 454Q918 454 963 403T1009 251V194ZM929 251Q929 291 922 317T901 359T871 380T833 386Q813 386 796 380T765 359T745 318T737 251V194Q737 153 744 127T765 86T795 64T833 58Q853 58 870 64T901 85T921 127T929 194V251ZM340 0H250L724 743H814L340 0ZM409 494Q409 449 400 411T370 346T316 304T234 289Q185 289 152 304T97 348T67 413T58 494V549Q58 593 67 630T97 695T151 738T234 754Q282 754 315 739T370 697T400 633T409 549V494ZM329 549Q329 626 306 656T234 686Q185 686 162 655T138 549V494Q138 417 161 387T234 357Q283 357 306 387T329 494V549Z"  />
<glyph unicode="&#x2039;" horiz-adv-x="382" d="M218 81L55 289L218 495H324L166 289L324 81H218Z"  />
<glyph unicode="&#x203A;" horiz-adv-x="382" d="M163 81H57L216 289L57 495H163L327 289L163 81Z"  />
<glyph unicode="&#x20AC;" horiz-adv-x="667" d="M597 3Q585 0 566 -3T523 -8T474 -12T423 -14Q376 -14 330 -5T243 33T174 112T134 249H62V320H126Q124 345 124 370T125 422H62V493H133Q143 579 172 630T240 710T327 746T423 755Q448 755 474 754T523 750T565 744T597 738V601H526L515 671Q474 674 428 674Q392 674 360 669T302 645T256 590T228 493H558L538 422H219Q217 397 217 372T220 320H507L488 249H230Q240 188 259 152T304 98T361 74T428 68Q443 68 463 69T506 71T552 75T597 79V3H597Z"  />
<glyph unicode="&#x2122;" horiz-adv-x="887" d="M731 407V575Q731 615 734 653H733Q725 638 717 622T701 592L641 495H582L524 592Q516 604 508 621T491 653H490Q493 615 493 575V407L526 404V349H387V404L420 407V685L387 688V743H506L587 604Q595 592 600 582T611 558H612Q619 572 623 582T636 604L718 743H838V688L805 685V407L838 404V349H698V404L731 407ZM308 647L302 684H238V407L271 404V349H130V404L163 407V684H98L92 647H43V743H357V647H308Z"  />

</font>
</defs>
</svg>
